<?xml version="1.0" standalone="no"?>
<!DOCTYPE svg PUBLIC "-//W3C//DTD SVG 1.1//EN" "http://www.w3.org/Graphics/SVG/1.1/DTD/svg11.dtd" >
<svg>
<metadata>
Created by FontForge 20090622 at Fri Sep  4 03:58:03 2020
 By deploy user
Copyright (c) 1995 Adobe Systems Incorporated.  All Rights Reserved.Optima is a trademark of Linotype-Hell AG and/or its subsidiaries.
</metadata>
<defs>
<font id="Optima-Medium" horiz-adv-x="500" >
  <font-face 
    font-family="Optima"
    font-weight="550"
    font-stretch="normal"
    units-per-em="1000"
    panose-1="2 0 6 3 6 0 0 2 0 4"
    ascent="733"
    descent="-267"
    x-height="481"
    cap-height="687"
    bbox="-164 -276 1000 896"
    underline-thickness="50"
    underline-position="-50"
    unicode-range="U+0020-U+FB02"
  />
<missing-glyph horiz-adv-x="250" 
 />
    <glyph glyph-name="fi" unicode="fi" horiz-adv-x="611" 
d="M327 649l-7 -4q-13 5 -26.5 8.5t-30.5 3.5q-28 0 -43.5 -10.5t-22.5 -25t-8 -29.5t-1 -24q0 -14 1.5 -29.5t3.5 -30t4 -26t4 -17.5q27 0 53.5 0.5t53.5 1.5q-1 -8 -1.5 -14t-0.5 -11t0.5 -9.5t1.5 -9.5q-26 1 -52.5 1.5t-52.5 0.5l1 -163v-51t1 -73.5l2 -78t4 -64.5
q-11 2 -23.5 4t-29.5 2t-29.5 -2l-24.5 -4q3 26 4.5 60.5l3 71t2 71.5t0.5 62q0 33 -0.5 75t-2.5 90q-21 0 -42 -0.5t-42 -1.5q1 6 1.5 11t0.5 10t-0.5 10.5t-1.5 12.5q21 -1 42.5 -1.5t42.5 -0.5q1 58 18.5 107.5t44.5 85.5t61 56.5t70 20.5q10 0 15.5 -0.5t11.5 -2.5z
M529 643q0 -23 -16 -38.5t-39 -15.5q-22 0 -38 15.5t-16 38.5t16 39t38 16q23 0 39 -16t16 -39zM429 249q0 85 -2.5 138t-5.5 92q11 -3 21.5 -4.5t27.5 -1.5t29 1.5t23 4.5l-2 -41.5t-2 -49.5t-1.5 -70t-0.5 -102v-31.5t1 -37l2.5 -58t3.5 -94.5q-10 3 -19.5 4.5t-29.5 1.5
q-21 0 -31 -1.5t-21 -4.5q1 28 2.5 60.5t2.5 65.5t1.5 66t0.5 62z" />
    <glyph glyph-name="fl" unicode="fl" horiz-adv-x="611" 
d="M327 649l-7 -4q-13 5 -26.5 8.5t-30.5 3.5q-28 0 -43.5 -10.5t-22.5 -25t-8 -29.5t-1 -24q0 -14 1.5 -29.5t3.5 -30t4 -26t4 -17.5q27 0 53.5 0.5t53.5 1.5q-1 -8 -1.5 -14t-0.5 -11t0.5 -9.5t1.5 -9.5q-26 1 -52.5 1.5t-52.5 0.5l1 -163v-51t1 -73.5l2 -78t4 -64.5
q-11 2 -23.5 4t-29.5 2t-29.5 -2l-24.5 -4q3 26 4.5 60.5l3 71t2 71.5t0.5 62q0 33 -0.5 75t-2.5 90q-21 0 -42 -0.5t-42 -1.5q1 6 1.5 11t0.5 10t-0.5 10.5t-1.5 12.5q21 -1 42.5 -1.5t42.5 -0.5q1 58 18.5 107.5t44.5 85.5t61 56.5t70 20.5q10 0 15.5 -0.5t11.5 -2.5z
M426 380q0 57 -0.5 98.5t-0.5 72.5t-0.5 53.5l-1 43t-2 40.5t-2.5 45l25.5 -4t26.5 -2t26.5 2t26.5 4l-3.5 -95.5t-2 -82t-1 -86.5t-0.5 -111q0 -59 0.5 -103.5t1.5 -84.5t2.5 -81.5l3.5 -93.5q-11 3 -22.5 5t-31.5 2q-19 0 -29.5 -2t-21.5 -5l3.5 67t2 67.5t0.5 96.5v154z
" />
    <glyph glyph-name=".notdef" horiz-adv-x="250" 
 />
    <glyph glyph-name=".null" horiz-adv-x="0" 
 />
    <glyph glyph-name="nonmarkingreturn" horiz-adv-x="250" 
 />
    <glyph glyph-name="space" unicode=" " horiz-adv-x="250" 
 />
    <glyph glyph-name="space" unicode="&#xa0;" horiz-adv-x="250" 
 />
    <glyph glyph-name="dollar" unicode="$" 
d="M267 32q50 12 77.5 43.5t27.5 82.5q0 31 -10.5 52.5t-26 36t-34 24t-34.5 16.5v-255zM224 638q-7 -1 -23 -6t-32.5 -17t-29 -33t-12.5 -54q0 -29 10.5 -48.5t25.5 -33t31.5 -21.5t29.5 -13v226zM390 548q-3 10 -9.5 24t-20 27.5t-36 25t-57.5 15.5v-245l25.5 -10
l26.5 -11q28 -12 53 -25.5t44 -33.5t30.5 -47t11.5 -66q0 -45 -18.5 -87t-50.5 -72q-33 -30 -63.5 -40t-58.5 -15v-24.5t0.5 -19t1.5 -20.5t3 -29q-5 1 -11.5 1.5t-14.5 0.5q-9 0 -15.5 -0.5t-12.5 -1.5q2 16 3 27t2 20.5t1 19v22.5h-34.5t-46 5t-54 16t-57.5 33
q11 34 14 55t4 36h12q19 -36 42.5 -56.5t46.5 -30t42.5 -12t30.5 -2.5v276l-46 18.5t-31.5 14t-23.5 12.5t-21 15q-18 13 -28.5 30.5t-16.5 35t-8 34t-2 28.5q0 51 19 85.5t46.5 56.5t58 32t53.5 13q0 11 -0.5 18.5t-1 16t-1.5 19.5t-3 29q9 -1 16 -1.5t12 -0.5q6 0 13 0.5
t13 1.5q-2 -20 -2.5 -31.5t-1.5 -19.5t-1 -14.5v-14.5q53 -2 92.5 -14t72.5 -31q-12 -24 -18.5 -45.5t-9.5 -42.5z" />
    <glyph glyph-name="percent" unicode="%" horiz-adv-x="889" 
d="M616 722l10.5 -2t13.5 -1q14 0 23 3l-388 -757q-12 3 -25 3q-12 0 -25 -3zM680 290q-27 0 -44 -14.5t-26.5 -36t-13.5 -46t-4 -45.5q0 -22 4 -47t13.5 -46t26.5 -35t44 -14q28 0 45 14t26.5 35t13 46t3.5 47q0 21 -3.5 45.5t-13 46t-26.5 36t-45 14.5zM845 148
q0 -36 -12.5 -66t-34 -52.5t-52 -35t-66.5 -12.5t-66 12.5t-52 35t-34.5 52.5t-12.5 66t12.5 66t34.5 52.5t52 35t66 12.5t66.5 -12.5t52 -35t34 -52.5t12.5 -66zM209 677q-27 0 -44 -14.5t-26.5 -36t-13.5 -46t-4 -45.5q0 -22 4 -47t13.5 -46t26.5 -35t44 -14q28 0 45 14
t26.5 35t13 46t3.5 47q0 21 -3.5 45.5t-13 46t-26.5 36t-45 14.5zM374 535q0 -36 -12.5 -66t-34 -52.5t-52 -35t-66.5 -12.5t-66 12.5t-52 35t-34.5 52.5t-12.5 66t12.5 66t34.5 52.5t52 35t66 12.5t66.5 -12.5t52 -35t34 -52.5t12.5 -66z" />
    <glyph glyph-name="ampersand" unicode="&#x26;" horiz-adv-x="722" 
d="M153 194q0 -37 14 -66t36.5 -48.5t50 -30t54.5 -10.5q49 0 82 21t62 46q-20 20 -48 51l-57 65l-55 65.5t-41 52.5q-12 -7 -29 -18.5t-32.5 -29t-26 -42t-10.5 -56.5zM244 551q0 -35 17.5 -65.5t50.5 -73.5q49 30 70.5 70.5t21.5 75.5q0 32 -19.5 57t-57.5 25t-60.5 -24.5
t-22.5 -64.5zM613 377q8 -12 21.5 -26t27.5 -22q-15 -31 -32.5 -59l-34 -52t-31 -42.5t-24.5 -29.5l51.5 -58t80.5 -79v-14q-15 5 -29 5.5t-30 0.5q-11 0 -29.5 -0.5t-35.5 -5.5q-25 32 -43.5 52l-29.5 31q-14 -14 -32.5 -30.5t-45 -31t-60.5 -24.5t-77 -10
q-48 0 -84.5 13.5t-62 37t-38.5 56t-13 70.5q0 33 9.5 60.5t29.5 52t52.5 47t79.5 45.5q-42 55 -53 91.5t-11 60.5q0 25 8 52.5t26.5 51t48.5 39t75 15.5q36 0 62 -9.5t42.5 -25.5t24 -37t7.5 -44q0 -29 -10 -52t-27 -42.5t-41.5 -38l-52.5 -39.5l45 -55.5l48 -58l46.5 -54
l39.5 -43.5q12 11 27 32.5t29 48.5t24.5 58t13.5 61z" />
    <glyph glyph-name="quoteright" unicode="&#x2019;" horiz-adv-x="250" 
d="M107 645l5 15t8.5 16.5t14 13t22.5 5.5q23 0 33 -14t10 -28q0 -11 -4 -21t-11 -21l-121 -202q-7 5 -12 6l-10 2z" />
    <glyph glyph-name="parenleft" unicode="(" horiz-adv-x="333" 
d="M85 283q0 39 4 74.5t13 69.5t23.5 68t34.5 71q34 61 61.5 90.5t41.5 41.5q5 -6 10 -10.5l14 -12.5q-24 -26 -47 -64.5t-40.5 -88.5t-28.5 -111t-11 -133q0 -65 9.5 -123.5t26 -109t39 -91t47.5 -69.5q-8 -6 -12.5 -10t-9.5 -12l-28.5 29.5t-35 42t-37.5 58t-36 76.5
q-13 32 -25.5 84.5t-12.5 129.5z" />
    <glyph glyph-name="parenright" unicode=")" horiz-adv-x="333" 
d="M248 282q0 -78 -15.5 -141.5t-46.5 -125.5q-31 -61 -60.5 -95t-52.5 -57q-10 13 -22 22q25 28 47.5 69t39 91.5t26 109t9.5 123.5q0 132 -35 233t-92 164q9 7 13.5 11.5t10.5 11.5q15 -13 40.5 -41t59.5 -87q21 -36 35.5 -70.5t24 -69t14 -71t4.5 -77.5z" />
    <glyph glyph-name="asterisk" unicode="*" 
d="M384 639q11 -25 18 -35t16 -20l-52 -21.5l-34 -14.5t-25 -11.5l-26 -13.5q20 -12 58 -29t77 -31l-10.5 -14.5t-7.5 -12.5l-6 -12.5t-6 -16.5l-28.5 20.5l-32 23.5l-32 23.5l-27.5 20.5q1 -10 2.5 -27.5t3.5 -37.5l4 -42t5 -41q-7 2 -14 3t-16 1t-17 -1t-17 -3q1 5 3 20.5
l4.5 36.5t5 44.5t3.5 45.5q-31 -19 -60.5 -41.5l-58.5 -44.5q-4 11 -7 18t-6.5 12.5t-7.5 11t-11 13.5q15 6 33 14l36 16l35 15.5t30 14.5q-12 7 -29.5 15l-36.5 16l-37 15t-31 13q15 17 20.5 27.5t11.5 28.5l61 -47t58 -39q-1 17 -3 38.5t-4.5 42t-5 38t-3.5 27.5
q8 -2 16.5 -3t18.5 -1q14 0 29 4q-2 -11 -4 -29l-4.5 -39t-4 -41.5t-1.5 -35.5l30.5 20t32 23l30 23.5z" />
    <glyph glyph-name="plus" unicode="+" horiz-adv-x="593" 
d="M263 216h-218v60h218v215h66v-215h218v-60h-218v-216h-66v216z" />
    <glyph glyph-name="comma" unicode="," horiz-adv-x="250" 
d="M78 54q12 43 26.5 56t33.5 13q24 0 32.5 -15t8.5 -29q0 -5 -2.5 -17.5t-12.5 -29.5l-130 -216l-10.5 4.5t-11.5 3.5z" />
    <glyph glyph-name="hyphen" unicode="-" horiz-adv-x="333" 
d="M288 203q-29 1 -49 2t-36 2t-29 1h-26q-32 0 -54 -1.5l-49 -3.5q2 10 3 19.5t1 24.5q0 14 -1 23.5t-3 18.5q29 -2 60.5 -3.5t64.5 -1.5q32 0 59 1.5t59 3.5q-2 -10 -3 -18.5t-1 -24.5t1 -24.5t3 -18.5z" />
    <glyph glyph-name="hyphen" unicode="&#xad;" horiz-adv-x="333" 
d="M288 203q-29 1 -49 2t-36 2t-29 1h-26q-32 0 -54 -1.5l-49 -3.5q2 10 3 19.5t1 24.5q0 14 -1 23.5t-3 18.5q29 -2 60.5 -3.5t64.5 -1.5q32 0 59 1.5t59 3.5q-2 -10 -3 -18.5t-1 -24.5t1 -24.5t3 -18.5z" />
    <glyph glyph-name="period" unicode="." horiz-adv-x="250" 
d="M126 115q26 0 44.5 -18.5t18.5 -44.5t-18.5 -45t-44.5 -19q-27 0 -45.5 18.5t-18.5 44.5t18.5 45t45.5 19z" />
    <glyph glyph-name="slash" unicode="/" horiz-adv-x="278" 
d="M54 -19q-8 2 -15 2.5t-18 0.5t-16.5 -0.5t-11.5 -2.5l231 692q13 -3 32 -3q11 0 17.5 0.5t12.5 2.5z" />
    <glyph glyph-name="zero" unicode="0" 
d="M369 349q0 63 -4.5 116t-17 92t-36 60.5t-61.5 21.5q-42 0 -66 -29t-35.5 -73.5t-14.5 -98t-3 -102.5q0 -48 2 -103.5t13 -102.5t34.5 -78.5t67.5 -31.5q62 0 91.5 79t29.5 250zM469 341q0 -17 -1 -50t-7.5 -73t-19.5 -82t-37.5 -76t-62 -56t-91.5 -22q-52 0 -88.5 17.5
t-61 45.5t-38 64.5t-20.5 74t-9 73.5t-2 64q0 29 2 67t9 77.5t21 77.5t38.5 68t61 48t87.5 18q52 0 88.5 -18t61 -47.5t38 -66t20.5 -74t9 -72t2 -58.5z" />
    <glyph glyph-name="one" unicode="1" 
d="M23 529q25 8 66 25t86.5 39t89 47t73.5 49l11 -7q-2 -16 -3 -25.5t-2 -25.5q-2 -27 -3 -71t-2 -95.5t-1.5 -106l-1 -104t-0.5 -89v-60.5q0 -42 0.5 -68.5t1.5 -41.5q-18 3 -30.5 4.5t-26.5 1.5t-26.5 -1.5t-26.5 -4.5q2 15 4 34t4 40t3 43t1 42v27.5t0.5 56.5t0.5 77.5
t0.5 89.5t0.5 92.5v87.5q-8 -5 -31 -17t-50 -27.5l-53.5 -31.5t-42.5 -28q-5 9 -13.5 19.5t-28.5 21.5v7z" />
    <glyph glyph-name="two" unicode="2" 
d="M16 23q57 50 109.5 104t101.5 112q15 17 33 40t33.5 53t26.5 67t11 81q0 16 -3.5 42.5t-15.5 51.5t-36 43t-65 18q-19 0 -40 -7t-39 -23.5t-29.5 -43.5t-10.5 -67l-16 -3q-8 23 -22 40t-24 26q5 10 17.5 30t36 40t60 35.5t89.5 15.5q48 0 86 -14t63.5 -38t39 -56.5
t13.5 -70.5q0 -34 -9.5 -65.5t-24.5 -60t-34 -53t-38 -43.5l-195 -199h192q35 0 70 1.5t69 5.5q-5 -22 -5 -47q0 -15 1.5 -25t3.5 -18q-22 2 -56 3.5t-70 1.5q-37 0 -78 -0.5t-83 -1.5t-83.5 -1.5t-78.5 -1.5v28z" />
    <glyph glyph-name="three" unicode="3" 
d="M49 102q14 -25 32 -40t36 -23.5t35.5 -11t31.5 -2.5q45 0 74.5 16t47 40t24 52t6.5 53q0 39 -12 67t-33 45t-48 25t-57 8q-16 0 -26 -2t-21 -6q1 6 1.5 12t0.5 15q0 10 -0.5 16t-1.5 13q11 -3 23 -5t26 -2q34 0 57 13t37.5 33t21 44.5t6.5 47.5q0 61 -32 94t-81 33
q-33 0 -56.5 -13.5t-35.5 -27.5t-15.5 -27.5t-5.5 -27.5l-15 1q-5 25 -10.5 37.5t-18.5 30.5q10 9 25 21t36 22t48 17t63 7q30 0 64 -7t63 -24.5t48.5 -47.5t19.5 -75q0 -59 -36.5 -101t-93.5 -59q-12 -3 -15 -4t-3 -3q0 -4 5 -4q20 0 50 -6.5t58 -23.5t48 -48t20 -80
q0 -45 -18.5 -83t-52 -66t-82 -44t-108.5 -16q-62 0 -99 14.5t-59 26.5q7 17 10 32t3 43z" />
    <glyph glyph-name="four" unicode="4" 
d="M298 247v317l-35 -49l-42 -60l-43 -61l-37 -53l-19 -29.5l-15 -23l-13 -20l-13 -21.5h217zM134 181q-9 0 -25.5 -0.5t-35 -1l-38.5 -1t-37 -1.5q1 9 1 14t-2 16q9 11 35.5 48.5l61 87.5l72.5 105.5l70 103l54 80t24 36.5q9 -2 19 -3.5t24 -1.5q13 0 21.5 1.5t16.5 3.5
q-2 -35 -3 -62l-2 -53t-1.5 -53t-1 -62t-1 -81.5t-0.5 -109.5q17 0 28 0.5t20.5 1l19.5 1t25 1.5q-2 -9 -3.5 -18.5t-1.5 -20.5q0 -12 1.5 -20t3.5 -16q-17 2 -37 3.5t-56 1.5q0 -8 0.5 -27.5t0.5 -41.5t0.5 -41t0.5 -26q1 -24 1 -32v-18q-14 3 -25.5 5t-24.5 2
q-12 0 -23.5 -2t-26.5 -5l5 76t3 110h-163z" />
    <glyph glyph-name="five" unicode="5" 
d="M76 320l3.5 104t1.5 82q0 29 -0.5 51t-1.5 40.5t-2.5 34.5t-2.5 33q10 -1 22 -2t30 -2t45 -1.5t66 -0.5q69 0 111.5 2t69.5 4q-1 -11 -3 -21t-2 -27q0 -13 1.5 -23t3.5 -18q-39 3 -82.5 5t-83.5 3t-72 1h-48q-4 -57 -5.5 -110.5t-1.5 -101.5q15 8 37.5 15.5t65.5 7.5
q42 0 80.5 -10.5t67 -32.5t45.5 -57.5t17 -84.5q0 -52 -20 -94.5t-55 -72.5t-83.5 -46.5t-106.5 -16.5q-14 0 -32 1.5t-38.5 6t-42.5 13.5t-44 24q7 25 9.5 40t4.5 36l11 1q21 -40 60 -60.5t79 -20.5q33 0 61.5 11.5t49.5 34t33 54.5t12 74q0 43 -14 72.5t-35 47.5t-46.5 26
t-49.5 8q-21 0 -38.5 -4.5t-30 -11t-21 -13l-12.5 -9.5z" />
    <glyph glyph-name="six" unicode="6" 
d="M254 22q34 0 56.5 15t36 39.5t19.5 55t6 62.5q0 24 -4 52t-16 52t-34 40.5t-58 16.5q-56 0 -90 -42t-34 -125q0 -85 34 -125.5t84 -40.5zM380 629q-11 3 -21.5 5.5t-27.5 2.5q-37 0 -71.5 -18t-61.5 -56.5t-44 -97.5t-20 -141q7 12 19 25.5t30.5 25t43.5 19.5t57 8
q85 0 136.5 -51.5t51.5 -143.5q0 -49 -15.5 -90t-44 -71t-68 -46.5t-86.5 -16.5q-34 0 -60.5 7.5t-46.5 19t-33.5 24t-21.5 23.5q-11 15 -22 34t-20 45.5t-14.5 62.5t-5.5 84q0 93 24 166.5t64 123.5t92.5 76.5t109.5 26.5q17 0 29 -1.5t23 -3.5q1 -9 2 -15.5t6 -22.5z" />
    <glyph glyph-name="seven" unicode="7" 
d="M498 651l-35 -57.5l-45 -76l-48.5 -83.5l-45.5 -79.5l-36.5 -64l-21.5 -37.5q-50 -92 -79 -153l-49 -105q-8 2 -18 4t-24 2t-24.5 -2t-19.5 -4l-3 8l55 85l43.5 68l36.5 58l34.5 55.5l37 61.5l44.5 75l50.5 86t46.5 86h-130q-50 0 -82 -0.5t-55 -1.5t-41.5 -2.5
t-42.5 -4.5q2 11 3.5 22t1.5 28t-1.5 28t-3.5 21q15 -2 31 -3t33 -3q45 -4 91 -4.5t87 -0.5h35t51.5 1t60.5 1.5t62 2.5z" />
    <glyph glyph-name="eight" unicode="8" 
d="M248 21q57 0 89 45.5t32 124.5q0 27 -4.5 56t-17.5 52.5t-36 38.5t-59 15q-45 0 -70 -22t-36 -50.5t-13 -55.5t-2 -37q0 -30 5.5 -60t18.5 -53.5t35.5 -38.5t57.5 -15zM249 390q17 0 33.5 7t30 22.5t21.5 40.5t8 61q0 16 -3 36.5t-12.5 38.5t-27 30t-46.5 12
q-35 0 -53.5 -15.5t-27 -36.5t-10 -42t-1.5 -31q0 -11 2 -31.5t10.5 -40.5t26 -35.5t49.5 -15.5zM301 376q20 -2 48.5 -7t56.5 -26q7 -6 18 -17t21.5 -28.5t17.5 -42.5t7 -58q0 -53 -16.5 -93t-46.5 -67t-71 -40.5t-90 -13.5q-53 0 -93 14.5t-68 41t-42 63.5t-14 81
q0 58 18 91.5t39 53.5q29 25 57.5 34t45.5 13q-60 14 -92.5 49t-32.5 94q0 27 10 55t32 51t58 37.5t87 14.5q90 0 138 -41t48 -107q0 -39 -14.5 -67.5t-35.5 -47.5t-43 -25.5t-43 -11.5z" />
    <glyph glyph-name="nine" unicode="9" 
d="M242 306q44 0 67.5 21.5t34.5 49.5t13 55t2 37q0 11 -1 27t-4 33.5t-9.5 35t-16.5 32.5q-13 17 -35 29t-48 12q-48 0 -83 -43.5t-35 -129.5q0 -31 6 -60t20 -51t35.5 -35t53.5 -13zM87 59q23 -23 47 -29.5t41 -6.5q37 0 70.5 21t58.5 60.5t40 97t15 129.5l-15.5 -19
t-20.5 -18q-18 -12 -35 -19t-31.5 -10.5t-26 -4t-18.5 -0.5q-44 0 -78.5 15.5t-58 42t-35.5 62.5t-12 78q0 44 13.5 84t40.5 70t66.5 48t92.5 18q75 0 119.5 -31t67 -76t29 -94t6.5 -85q0 -103 -29.5 -190t-83.5 -145q-21 -23 -45 -37t-47.5 -21.5t-46 -10t-41.5 -2.5
q-30 0 -44.5 3.5t-28.5 8.5q-5 19 -9 28.5l-11 26.5z" />
    <glyph glyph-name="colon" unicode=":" horiz-adv-x="250" 
d="M122 115q26 0 44.5 -18.5t18.5 -44.5t-18.5 -45t-44.5 -19q-27 0 -45.5 18.5t-18.5 44.5t18.5 45t45.5 19zM122 463q26 0 44.5 -18.5t18.5 -44.5q0 -27 -18.5 -45.5t-44.5 -18.5t-45 18.5t-19 44.5t18.5 45t45.5 19z" />
    <glyph glyph-name="semicolon" unicode=";" horiz-adv-x="250" 
d="M78 54q12 43 26.5 56t32.5 13q24 0 33 -15t9 -29q0 -5 -2.5 -17.5t-13.5 -29.5l-129 -217q-7 4 -10.5 5t-11.5 3zM129 463q26 0 44.5 -18.5t18.5 -44.5q0 -27 -18.5 -45.5t-44.5 -18.5t-45 19t-19 45t18.5 44.5t45.5 18.5z" />
    <glyph glyph-name="semicolon" unicode="&#x37e;" horiz-adv-x="250" 
d="M78 54q12 43 26.5 56t32.5 13q24 0 33 -15t9 -29q0 -5 -2.5 -17.5t-13.5 -29.5l-129 -217q-7 4 -10.5 5t-11.5 3zM129 463q26 0 44.5 -18.5t18.5 -44.5q0 -27 -18.5 -45.5t-44.5 -18.5t-45 19t-19 45t18.5 44.5t45.5 18.5z" />
    <glyph glyph-name="less" unicode="&#x3c;" horiz-adv-x="593" 
d="M46 277l501 200v-67l-423 -166l423 -164v-67l-501 199v65z" />
    <glyph glyph-name="equal" unicode="=" horiz-adv-x="593" 
d="M45 180h502v-60h-502v60zM45 370h502v-60h-502v60z" />
    <glyph glyph-name="greater" unicode="&#x3e;" horiz-adv-x="593" 
d="M46 13v67l422 164l-422 166v67l501 -200v-65z" />
    <glyph glyph-name="question" unicode="?" horiz-adv-x="444" 
d="M208 115q27 0 45.5 -18.5t18.5 -44.5t-18.5 -45t-45.5 -19q-26 0 -44.5 18.5t-18.5 44.5t18.5 45t44.5 19zM92 594q-2 17 -4 26.5t-7 26.5q16 14 35 22t36.5 11.5t30 4t16.5 0.5q37 0 67 -10.5t51 -29t32 -43.5t11 -55q0 -29 -8 -51.5t-20 -41t-25.5 -33t-25.5 -25.5
q-31 -30 -49.5 -50t-28.5 -34.5t-13 -25.5t-3 -23q0 -20 11.5 -37t37.5 -17q11 0 17.5 2.5t15.5 7.5l6 -4q-4 -9 -5.5 -15.5t-3.5 -17.5q-8 -2 -15 -3.5t-20 -1.5q-36 0 -59 11.5t-36.5 28.5t-18.5 36.5t-5 35.5q0 44 26 79t57 67q41 40 60 67.5t19 60.5q0 35 -22 58t-61 23
q-62 0 -90 -52z" />
    <glyph glyph-name="at" unicode="@" horiz-adv-x="800" 
d="M304 259q0 -36 16.5 -59.5t48.5 -23.5q27 0 47 17t34 46q8 16 17 41t17 50.5t13 49.5t5 39q0 29 -17 44.5t-40 15.5q-29 0 -54.5 -24t-45 -58.5t-30.5 -72.5t-11 -65zM684 71q-63 -45 -130 -68t-144 -23q-74 0 -141 23.5t-118 67.5t-81.5 106.5t-30.5 140.5
q0 76 30.5 144.5t84.5 120.5t127 82.5t159 30.5q72 0 131.5 -22t101.5 -60t65 -90.5t23 -112.5q0 -51 -17 -99.5t-44.5 -86t-63.5 -60.5t-75 -23q-13 0 -28 3.5t-27.5 13t-22 25.5t-10.5 41q-15 -32 -43 -57.5t-73 -25.5q-29 0 -52 11.5t-39 31t-25 44.5t-9 53q0 46 18 87.5
t47 73.5t64 51t70 19q10 0 24 -2.5t27.5 -10t24.5 -20.5t15 -33l17 55h69l-34.5 -113t-23.5 -79.5t-13 -52.5t-4 -32q0 -15 5 -24.5t12.5 -15t15.5 -7.5t14 -2q24 0 50 19.5t47.5 51.5t35.5 74.5t14 87.5q0 55 -20.5 101.5t-58 80.5t-89 52.5t-112.5 18.5q-75 0 -139 -28.5
t-111 -76t-74 -110t-27 -130.5q0 -67 24.5 -122.5t67.5 -95.5t102 -62.5t128 -22.5q68 0 131.5 22t119.5 61z" />
    <glyph glyph-name="A" unicode="A" horiz-adv-x="667" 
d="M303 555l-105 -248h213zM178 257l-41.5 -100.5t-51.5 -161.5l-18 4t-23 2t-24 -2l-20 -4l48.5 106.5l55 121l57.5 127.5l55.5 126.5l50 117.5l41.5 101l11.5 -2t13.5 -1q7 0 11.5 0.5t10.5 2.5q19 -53 48.5 -124.5l63 -149l67 -153.5l60 -136.5l44 -98t17.5 -38.5
l-26.5 4t-32.5 2q-20 0 -35 -2l-29 -4q-26 91 -54 155.5l-47 106.5h-253z" />
    <glyph glyph-name="B" unicode="B" horiz-adv-x="611" 
d="M446 192q0 55 -23 85.5t-54 44.5t-63.5 17t-51.5 3q-14 0 -26.5 -0.5t-32.5 -2.5q-1 -37 -1.5 -75.5t-0.5 -76.5q0 -74 3 -144q14 -1 24.5 -1.5t27.5 -0.5q13 0 30 0.5t34 2t33.5 5t28.5 10.5q22 12 36 28t22 33.5t11 35.5t3 36zM421 519q0 34 -13 58t-35 39t-49.5 22
t-57.5 7q-15 0 -34 -1.5t-36 -3.5q-3 -62 -3 -127q0 -32 0.5 -64.5t1.5 -64.5q24 -1 41 -1.5t30.5 0t24.5 2t23 4.5q51 11 79 46t28 84zM525 533q0 -44 -18.5 -72.5t-43.5 -46t-50 -26t-37 -11.5t-14.5 -4.5t-2.5 -3.5t3 -2.5t17 -2.5q49 -5 82.5 -22t54.5 -40.5t30 -51.5
t9 -55q0 -22 -5.5 -45t-18 -45t-31.5 -41.5t-46 -34.5q-30 -17 -72.5 -24.5t-86.5 -7.5q-7 0 -23.5 0.5t-35 0.5t-34.5 0.5t-22 0.5q-19 0 -37.5 -1t-52.5 -3q3 39 4.5 68.5t2.5 61.5t1.5 71t0.5 97q0 100 -2 198t-7 198q27 -3 53.5 -3h53.5q55 0 96.5 -0.5t72.5 -4t54 -10
t40 -18.5q30 -21 47.5 -52.5t17.5 -67.5z" />
    <glyph glyph-name="C" unicode="C" horiz-adv-x="722" 
d="M681 129q-4 -17 -6.5 -35t-4.5 -46q-56 -33 -119 -49t-129 -16q-87 0 -155 27t-115.5 75t-72 113.5t-24.5 142.5q0 72 23 136.5t70 112.5t119 76t171 28q45 0 83 -5.5t69 -13.5t54.5 -17.5l40.5 -16.5q-6 -15 -9.5 -26.5t-6 -22t-4.5 -22.5t-4 -29h-10q-10 21 -31 41
t-49.5 35.5t-63.5 24.5t-73 9q-59 0 -107.5 -21t-83 -61t-53.5 -97.5t-19 -129.5q0 -78 22.5 -136.5t60 -97t86.5 -58t102 -19.5q17 0 43.5 3t57.5 13.5t64 31t62 55.5z" />
    <glyph glyph-name="D" unicode="D" horiz-adv-x="778" 
d="M614 348q0 28 -4 60t-15 64t-31 61.5t-51 53.5q-26 20 -55 30.5t-59 15.5t-60.5 6t-60.5 1h-29.5t-20.5 -0.5t-17.5 -1.5t-20.5 -2q-3 -69 -4 -143t-1 -143v-111t0.5 -72t1 -56.5t1.5 -63.5q26 -3 48.5 -4.5t58.5 -1.5q16 0 41 0.5t53.5 5t57.5 14.5t55 28q35 25 57 57
t34 67t16.5 70t4.5 65zM725 360q0 -95 -31.5 -164t-84 -113.5t-121 -66t-143.5 -21.5q-4 0 -25.5 0.5t-48 1.5t-51 1.5t-34.5 0.5h-20t-22 -0.5t-28 -1.5t-37 -2q3 38 5 73t3.5 79t2.5 103t1 145q0 56 -0.5 94t-1.5 69t-2.5 61l-3.5 70q82 -3 164 -3q67 0 120 -1t96.5 -8
t80 -22t71.5 -43q33 -26 54 -56.5t33.5 -63t17.5 -66t5 -66.5z" />
    <glyph glyph-name="E" unicode="E" 
d="M188 385q60 -1 118.5 -0.5t117.5 7.5q-2 -8 -3 -15.5t-1 -18.5q0 -8 1.5 -15.5t2.5 -15.5q-39 5 -81 7.5t-74 2.5q-20 0 -41 -0.5t-40 -1.5q-1 -32 -1.5 -65.5t-0.5 -65.5q0 -20 0.5 -42.5l1 -44.5t1 -40t0.5 -28q48 0 111 1.5t152 10.5q-2 -8 -3 -15.5t-1 -18.5t1 -17.5
t3 -14.5q-35 5 -69.5 5.5t-69.5 0.5q-58 0 -116 -2l-116 -4l4 57t3.5 68.5t2.5 95t1 137.5q0 37 -0.5 80t-1.5 87t-2.5 86.5t-3.5 79.5q53 -5 104.5 -5.5t104.5 -0.5q38 0 76 1t76 5q-2 -8 -3 -16.5t-1 -18.5q0 -11 1 -17.5t3 -14.5q-14 3 -28.5 5t-32.5 4t-41.5 3t-56.5 1
h-46t-51 -2q-1 -15 -1.5 -26.5t-0.5 -23.5v-27.5v-37.5v-40v-29.5t0.5 -27t0.5 -33.5z" />
    <glyph glyph-name="F" unicode="F" 
d="M187 196q0 -37 0.5 -64.5t1.5 -50.5t2.5 -43.5t3.5 -42.5l-25 4t-34 2q-20 0 -31.5 -2l-23.5 -4q5 77 8 159t3 180q0 36 -0.5 82t-1.5 94t-2.5 94t-3.5 82l38 -3.5t35 -2t39 -0.5h49q50 0 83.5 0.5t56 1t37.5 1.5t29 3q-2 -8 -3 -16t-1 -19t1 -18.5t3 -15.5
q-32 5 -84 9.5t-114 4.5h-31t-33 -1q-1 -15 -1.5 -26.5t-0.5 -24v-28v-37.5v-40v-29.5t0.5 -27t0.5 -33.5h63.5t64 0.5t61 2.5t53.5 5q-2 -8 -3 -16t-1 -19t1 -17.5t3 -14.5q-44 7 -87.5 9t-75.5 2q-22 0 -41 -0.5t-38 -1.5z" />
    <glyph glyph-name="G" unicode="G" horiz-adv-x="778" 
d="M657 534q-9 14 -24.5 34.5t-41 39t-64 31.5t-93.5 13t-104.5 -19t-87.5 -57.5t-60.5 -96t-22.5 -135.5q0 -79 24 -138.5t64 -99t91.5 -59.5t106.5 -20q5 0 21 0.5t38 4t46.5 11.5t46.5 22q1 60 1 96t-0.5 60.5t-1.5 43t-4 42.5q13 -3 26 -4.5t33 -1.5q19 0 30.5 2l22.5 4
q-4 -45 -7 -92t-3 -104q0 -18 0.5 -37t2.5 -36l-67 -22.5t-65 -18t-68.5 -11.5t-77.5 -4q-83 0 -152 26t-118.5 73.5t-76.5 113.5t-27 147q0 71 23 135t71 112.5t121 77t172 28.5q71 0 144 -16t126 -43q-17 -35 -24 -61.5t-10 -40.5h-11z" />
    <glyph glyph-name="H" unicode="H" horiz-adv-x="778" 
d="M198 186v-57.5v-44t0.5 -41t1.5 -48.5l-24.5 4t-29.5 2t-30.5 -2l-26.5 -4q4 67 6.5 114t4 86.5t2 77.5t0.5 87q0 29 -0.5 52t-1 56t-2.5 84t-5 135q12 -3 24 -4.5t32 -1.5t32 1.5t24 4.5q-1 -11 -2.5 -42t-2.5 -72.5t-2 -88t0 -88.5q50 -2 99.5 -3t99.5 -1h53t46 0.5
l42.5 1t43.5 1.5q1 51 1 83t-0.5 61t-2 62t-3.5 86q12 -3 24 -4.5t32 -1.5q19 0 31.5 1.5t24.5 4.5q-7 -126 -9 -247t-2 -233v-53.5t1 -46.5t2 -49t3 -63q-14 2 -26.5 4t-25.5 2q-12 0 -25 -1.5t-32 -4.5l2.5 50t2.5 56.5t1.5 50.5t0.5 32v150q-25 1 -44 1.5l-39.5 1
t-46 0.5h-62.5h-60h-43.5t-40 -0.5t-48.5 -1.5v-149z" />
    <glyph glyph-name="I" unicode="I" horiz-adv-x="333" 
d="M118 351v62v48.5t-0.5 43t-1.5 46t-2 58t-3 78.5q12 -3 23.5 -4.5t31.5 -1.5q21 0 33 1.5t25 4.5q-5 -90 -6.5 -178.5t-1.5 -178.5q0 -68 0.5 -118t1.5 -89t2.5 -69.5t2.5 -58.5q-14 2 -29.5 4t-32.5 2t-29 -2l-24 -4q3 41 4.5 74t3 71.5t2 87.5t0.5 123z" />
    <glyph glyph-name="J" unicode="J" horiz-adv-x="333" 
d="M14 -117q16 2 33 6.5t32 17t26.5 35.5t15.5 61q2 17 3.5 45t2.5 62t1.5 71l1 72t0.5 65v50q0 83 -2 163.5t-6 155.5q13 -2 27.5 -4t31.5 -2q18 0 31.5 2l27.5 4q-6 -87 -8.5 -191.5t-2.5 -219.5q0 -32 0.5 -68t0.5 -68q0 -43 -1 -75.5t-6.5 -59t-17 -48.5t-32.5 -43
q-19 -20 -39.5 -31.5t-40.5 -18t-39 -9.5t-35 -4z" />
    <glyph glyph-name="K" unicode="K" horiz-adv-x="611" 
d="M95 332q0 82 -0.5 134t-1.5 89t-3 66t-4 66l27 -4t34 -2q19 0 29.5 2l21.5 4q-1 -11 -2 -26t-2 -32.5t-1.5 -35t-1.5 -33.5q-1 -20 -1 -39.5v-42t0.5 -50t0.5 -63.5l47.5 39t44 39l54 53l77.5 81l40.5 43.5t25 27.5t15.5 19.5l14 19.5q27 -6 52 -6q13 0 23.5 2l21.5 4
l2 -6q-11 -8 -36.5 -30.5l-58 -53.5l-69 -65.5l-68.5 -65.5l-57 -55t-34 -32l64 -72.5l72.5 -82l72 -81.5l64.5 -72q8 -8 22 -23.5t28 -29.5v-23q-10 2 -29.5 4t-33.5 2t-34.5 -1.5t-36.5 -4.5q-28 48 -64.5 92.5l-74.5 88.5l-49.5 57l-35 40l-28.5 31l-29 31l-3 -4v-62
q0 -58 0.5 -94.5t1 -64.5t2 -53.5t4.5 -61.5q-12 2 -26 4t-30 2q-15 0 -29.5 -2l-29.5 -4q4 66 6 108l3.5 76t2 68.5t0.5 84.5z" />
    <glyph glyph-name="L" unicode="L" 
d="M201 52q36 -2 55 -2h38t43.5 0.5t49 2t48 4t40.5 5.5q-2 -7 -3 -14.5t-1 -18.5q0 -12 1 -20t3 -14q-24 1 -45.5 2t-46 2t-54 1.5t-70.5 0.5q-33 0 -55.5 -0.5t-40.5 -1.5l-34.5 -2t-36.5 -2q3 48 5 92.5t2.5 89l1 89.5t0.5 94q0 51 -1 102.5t-2.5 96t-2.5 78.5t-2 50
l23.5 -4t30.5 -2q20 0 34.5 2l28.5 4l-3.5 -114.5t-2.5 -95t-1.5 -87.5t-1 -92t-0.5 -108.5v-137.5z" />
    <glyph glyph-name="M" unicode="M" horiz-adv-x="945" 
d="M769 -5q0 27 -3.5 73.5t-8 101t-10 112l-10 105.5t-8 81t-4.5 40l-105.5 -196l-101.5 -198q-12 -24 -19.5 -41l-13.5 -30.5l-10.5 -24.5t-8.5 -23q-10 2 -14 2q-3 0 -6 -0.5t-7 -1.5l-23.5 53t-23.5 48l-54 104l-55.5 105l-54.5 101.5l-52 92.5q-6 -38 -11.5 -83.5
t-10 -94t-8.5 -97t-6.5 -92t-3.5 -79.5t-1 -58q-12 3 -20 4.5t-18 1.5q-15 0 -27.5 -2t-20.5 -4q2 12 9.5 53t17 100l20.5 130.5l21.5 145t19.5 143t15 124.5q10 -2 17 -2q4 0 9.5 0.5t10.5 1.5q7 -17 27 -56l46.5 -90l57.5 -109.5l61 -113l55.5 -99.5t41.5 -71l69.5 129
l51 94l37 69l28.5 53.5l25 47.5l27 51l15 29.5t10.5 21.5t9.5 20t11 24q5 -1 9 -1.5t9 -0.5q4 0 8.5 0.5t10.5 1.5l19 -171t21 -182.5l21.5 -173t20.5 -142.5q1 -5 2 -11t4 -16q-20 3 -31 4.5t-25 1.5q-22 0 -35.5 -2z" />
    <glyph glyph-name="N" unicode="N" horiz-adv-x="778" 
d="M149 449q1 -61 1.5 -107t2 -83.5t2.5 -69t2.5 -61.5t3.5 -62t4 -71l-18.5 4t-23.5 2t-22 -2t-17 -4q2 19 4 57.5t4 85t3.5 95.5t1.5 88q0 15 -0.5 51l-1 75.5t-1 74.5t-0.5 49v120q5 -1 8.5 -1.5t7.5 -0.5q5 0 9.5 0.5t11.5 1.5l33 -39l20 -23.5l23 -25.5l29.5 -31.5
l39.5 -41.5l86.5 -91.5l64.5 -68l50.5 -53l45 -46.5l46.5 -48l56 -57v37v163.5t-1.5 121.5t-4 101.5t-7.5 101.5q8 -2 17.5 -4t21.5 -2t22.5 2l20.5 4q-13 -109 -15 -216.5t-2 -216.5v-65t0.5 -72.5l1 -70.5t2.5 -61q-6 1 -10 1.5t-9 0.5q-4 0 -7.5 -0.5t-8.5 -1.5
l-24.5 28.5l-38.5 44l-47.5 52.5l-51 54.5l-49 50.5l-40.5 40l-25.5 24.5l-25.5 25.5l-195 203v-63z" />
    <glyph glyph-name="O" unicode="O" horiz-adv-x="889" 
d="M178 337q0 -73 19.5 -131.5t54.5 -99t83.5 -62t106.5 -21.5q59 0 108.5 21t85.5 62t56 100.5t20 136.5q0 19 -2 43.5t-7 50t-13.5 51t-21.5 47.5q-20 34 -48 57t-58.5 36.5t-61 19t-55.5 5.5q-50 0 -98 -17.5t-85.5 -55.5t-60.5 -98t-23 -145zM450 696q78 0 146.5 -22.5
t119.5 -67t80.5 -109.5t29.5 -149q0 -78 -27 -145.5t-77 -117t-121.5 -77.5t-160.5 -28q-82 0 -151 24.5t-119 70.5t-78 112t-28 149q0 80 26 146t75.5 113.5t121 74t163.5 26.5z" />
    <glyph glyph-name="P" unicode="P" horiz-adv-x="556" 
d="M424 500q0 29 -7.5 54.5t-26.5 43.5q-26 24 -65 34t-77 10q-12 0 -28 -1t-30 -3q-1 -65 -1 -139.5t1 -153.5q37 -1 78.5 1.5t76 17.5t57 47t22.5 89zM533 510q0 -34 -9 -61t-23.5 -47t-31.5 -34.5t-32 -24.5q-20 -13 -45 -21t-51.5 -12.5t-53 -6.5t-49.5 -2
q-12 0 -24 0.5t-24 1.5v-93t1 -76.5t2.5 -69t3.5 -69.5q-13 2 -24.5 4t-33.5 2q-20 0 -31 -2l-22 -4q5 106 6.5 211t1.5 211q0 56 -0.5 95t-1.5 69t-2.5 54.5t-3.5 51.5q29 -2 68 -2.5t98 -0.5q57 0 104.5 -3t83.5 -20q46 -22 69.5 -61t23.5 -90z" />
    <glyph glyph-name="Q" unicode="Q" horiz-adv-x="889" 
d="M178 337q0 -73 19.5 -131.5t54.5 -99t83.5 -62t106.5 -21.5q59 0 108.5 21t85.5 62t56 100.5t20 136.5q0 19 -2 43.5t-7 50t-13.5 51t-21.5 47.5q-20 34 -48 57t-58.5 36.5t-61 19t-55.5 5.5q-50 0 -98 -17.5t-85.5 -55.5t-60.5 -98t-23 -145zM818 -156q-21 -7 -42 -17
t-44 -27q-37 32 -76.5 61t-81.5 55l-38.5 24.5l-24.5 16t-18 12.5l-19 14q-11 -1 -21.5 -1.5t-20.5 -0.5q-86 0 -154 26.5t-115.5 74t-73 113t-25.5 142.5q0 81 26.5 147t76 113.5t120.5 73t159 25.5q87 0 157.5 -25t120 -70.5t76 -110t26.5 -142.5q0 -73 -21 -130
t-54.5 -100t-76.5 -71.5t-87 -43.5q-2 -2 -2 -3q0 -2 5 -6.5l11.5 -10t13 -10l9.5 -6.5l81.5 -52.5l50 -31.5t33 -19t29.5 -14v-6z" />
    <glyph glyph-name="R" unicode="R" horiz-adv-x="611" 
d="M430 511q0 44 -16.5 70t-42 40t-56 18t-57.5 4q-22 0 -37.5 -1.5t-25.5 -3.5q-2 -34 -2 -68v-68v-37.5t0.5 -40t0.5 -35.5v-24q14 -2 24.5 -2t28.5 1q17 1 47.5 4.5t60.5 17.5t52.5 43.5t22.5 81.5zM596 -5q-16 2 -29 4t-30 2q-16 0 -33.5 -2t-38.5 -4l-67.5 102.5
l-61.5 87l-58.5 76l-57.5 69.5h-26q0 -54 0.5 -134t6.5 -201q-13 3 -28.5 4.5t-29.5 1.5q-20 0 -31 -2l-22 -4q4 89 5.5 181t1.5 202q0 70 -2 147l-4 162q29 -3 50 -3.5t37 -0.5h23.5t35 0.5t35 0.5h22.5q45 0 75.5 -3t51.5 -8t35.5 -13t26.5 -18q29 -23 40 -53.5t11 -66.5
q0 -54 -22 -87t-53 -52t-64.5 -27.5t-56.5 -12.5q9 -14 31 -43.5l49.5 -65.5l57.5 -74l56 -71l43.5 -55.5l20.5 -26.5v-12z" />
    <glyph glyph-name="S" unicode="S" horiz-adv-x="556" 
d="M424 560q-5 14 -14.5 30.5t-25.5 30.5t-40.5 23t-58.5 9q-41 0 -66 -13t-39 -31.5t-18.5 -38t-4.5 -32.5q0 -30 11 -50.5t28.5 -34.5t38 -24t39.5 -17l66.5 -26t42.5 -18t29 -15.5t25 -18.5q17 -14 28 -30.5t17 -33.5t8.5 -33.5t2.5 -30.5q0 -39 -14 -78.5t-44.5 -72
t-78 -52.5t-114.5 -20q-50 0 -96.5 13t-85.5 42q11 38 14 61t4 33h13q22 -45 64.5 -74.5t102.5 -29.5q39 0 67 12t46 30.5t26.5 42.5t8.5 48q0 30 -10 51.5t-27 37.5t-39.5 27.5t-47.5 21.5l-70 29.5l-42 19t-25.5 14t-19.5 15.5q-26 21 -38 55t-12 69q0 48 18 84.5t48.5 61
t71 36.5t84.5 12q29 0 56 -5t49.5 -12t39 -15t25.5 -14l-7.5 -15.5t-9 -21.5t-8 -25.5t-4.5 -26.5h-14z" />
    <glyph glyph-name="T" unicode="T" horiz-adv-x="556" 
d="M231 386q0 69 -0.5 131.5t-1.5 113.5q-79 -1 -134 -4t-88 -10q2 8 3 16t1 19q0 12 -1 19.5t-3 15.5q23 -2 57 -3.5t71 -2t74 -0.5h67h74.5t72.5 0.5t66 2t55 3.5q-2 -7 -3 -15.5t-1 -19.5t1 -19t3 -16q-23 4 -73 8.5t-140 5.5q-1 -52 -1.5 -104t-0.5 -103
q0 -45 -0.5 -96.5t0 -106.5t2 -112t5.5 -114q-26 4 -42 5t-22 1q-17 0 -31 -2t-21 -4q6 83 8.5 186t2.5 205z" />
    <glyph glyph-name="U" unicode="U" horiz-adv-x="778" 
d="M98 273v115.5t-0.5 84t-0.5 61.5t-1 49.5t-2.5 48l-3.5 55.5q16 -2 30.5 -4t28.5 -2q17 0 31 2l27 4q-3 -49 -5 -105.5t-3 -106.5t-1 -86v-44q0 -47 1 -84.5t5.5 -67t13.5 -52.5t24 -41q24 -30 68 -47.5t92 -17.5q10 0 37.5 3t59 17.5t60 43.5t40.5 82q6 25 9.5 57t5 62
t2 54t0.5 33q0 14 -1 53.5t-2.5 86t-4 91.5t-6.5 69l20 -4t27 -2t26 2l18 4q-10 -69 -13.5 -155t-3.5 -198q0 -36 -2 -74t-9 -73.5t-21.5 -68t-39.5 -58.5q-32 -33 -83 -56t-137 -23q-29 0 -62 4t-65.5 15.5t-63 31t-53.5 50.5q-14 19 -22 39t-12.5 43t-6 50t-1.5 59z" />
    <glyph glyph-name="V" unicode="V" horiz-adv-x="667" 
d="M360 108l49.5 117t42.5 105.5l40.5 108.5t43.5 126l13.5 43l9.5 32l7 25l6 22q9 -3 18 -4.5t23 -1.5q9 0 24 1t25 5q-5 -8 -21 -41.5l-39 -84.5l-51.5 -117l-59 -140.5l-61.5 -153l-59 -155.5q-4 2 -13 4t-27 2q-5 0 -16 -0.5t-23 -5.5q-6 18 -23.5 66.5l-42 113.5
l-53.5 139.5l-58 145l-55.5 131t-45.5 96.5q10 -3 27.5 -4.5t31.5 -1.5q13 0 32.5 0.5t36.5 5.5q9 -32 23.5 -75.5l32.5 -94.5l38.5 -106l41.5 -108.5l42 -103.5t40 -91z" />
    <glyph glyph-name="W" unicode="W" horiz-adv-x="1000" 
d="M809 326l28.5 84t25.5 82.5t24 89.5t24 105q12 -5 22.5 -5.5t20.5 -0.5q21 0 31 2t15 4l-79 -202t-112 -314l-20.5 -61.5l-15 -45t-11 -36l-9.5 -33.5q-8 4 -20.5 5t-19.5 1q-5 0 -17 -0.5t-24 -5.5q-10 39 -26 91.5l-34.5 109.5l-38 113.5l-36 104.5l-29 82.5
t-16.5 47.5l-19 -53.5l-29.5 -83l-34.5 -99l-34.5 -100.5l-29.5 -88l-20 -62q-5 -15 -9 -28.5t-9 -34.5q-14 4 -26 5t-18 1q-5 0 -16.5 -0.5t-25.5 -5.5l-42 152.5t-55 184l-61.5 188.5t-61.5 167q8 -2 21.5 -4t30.5 -2q22 0 43.5 2.5t26.5 3.5q14 -62 35.5 -140t45.5 -157
l47 -151l39 -121l73 208l28 83.5l32 99t29.5 98t20.5 80.5l17.5 -4t24.5 -2q15 0 22.5 2l15.5 4l15 -56l22 -76q8 -27 21 -66l28 -83l30 -89.5l28.5 -85l24 -69.5l15.5 -44z" />
    <glyph glyph-name="X" unicode="X" horiz-adv-x="611" 
d="M352 372l41 -67l47 -75.5l47 -75.5l42 -67l11 -17l11.5 -18l15.5 -23.5l23 -33.5q-21 5 -40 5.5t-33 0.5t-30.5 -1t-30.5 -5q-6 15 -19 39.5l-29 53.5l-33.5 59.5l-33.5 58.5l-29 49.5t-19 32.5q-39 -58 -86 -136t-89 -157q-8 2 -22 4t-27 2q-11 0 -23 -1t-23 -5l34 45.5
l45.5 61.5l50 68.5l48 67l39.5 56.5t24 38l-47.5 76.5l-62.5 99l-64.5 99.5l-52.5 80q16 -5 32 -5.5t32 -0.5q13 0 34 1.5t35 4.5l44 -82.5l45.5 -81.5l39 -66.5t25.5 -37.5l35.5 51.5l46.5 72t45.5 77t33.5 67.5q8 -2 18.5 -4t33.5 -2q18 0 27 2t17 4q-18 -21 -47 -59
l-61.5 -82l-64.5 -90t-56 -84z" />
    <glyph glyph-name="Y" unicode="Y" horiz-adv-x="611" 
d="M363 227q0 -14 0.5 -41t1 -59.5t2 -67t3.5 -64.5q-15 5 -27.5 5.5t-22.5 0.5q-23 0 -36 -1t-24 -5q3 31 4.5 57t2 56t0 69.5t-0.5 96.5l-72 121l-52.5 88.5l-39 64.5l-30 49.5l-26 43.5l-28.5 46q20 -5 38 -5.5t26 -0.5q26 0 44 2t26 4q31 -78 66.5 -143.5l67.5 -121.5
l16 -27.5l15 -24.5t12 -17.5t8 -6.5q2 0 7.5 8l12 18t12 20t8.5 15q39 68 74 137.5t65 142.5q11 -4 23 -5t24 -1q14 0 23.5 1.5t21.5 4.5l-27.5 -40.5l-39 -60.5l-44.5 -71.5l-45 -73.5l-40 -67l-29 -51q-7 -12 -11 -22t-8 -19q-1 -11 -1 -25v-30z" />
    <glyph glyph-name="Z" unicode="Z" horiz-adv-x="611" 
d="M5 12q3 3 11.5 14l18 23l18 23.5t11.5 16.5l79.5 111l97.5 140.5l102.5 150l94.5 140.5q-56 0 -111.5 -0.5t-107 -2t-96.5 -4.5t-79 -9q2 8 3 17.5t1 20.5q0 13 -1 20t-3 14q33 -2 62 -3.5t61 -2t71 -0.5h91q100 0 166.5 1.5t94.5 4.5v-15l-177.5 -246.5l-136 -194.5
l-87 -128.5t-30.5 -48.5t2.5 -2.5t3.5 -0.5q83 0 189 2t234 13q-2 -5 -3 -12.5t-1 -20.5q0 -8 0.5 -17.5t3.5 -20.5q-6 1 -30.5 1.5t-59 1.5t-75 1.5l-77.5 1t-67 0.5h-44q-58 0 -115.5 -1t-114.5 -5v17z" />
    <glyph glyph-name="bracketleft" unicode="[" horiz-adv-x="333" 
d="M106 587l-2 100q20 -3 36.5 -4t34.5 -1q29 0 56 1t56 4q-2 -5 -3 -9.5t-1 -12.5t1 -13t3 -10q-18 3 -31.5 4t-25 2t-23 1h-25.5q-2 -60 -3 -95.5t-1.5 -65.5t-0.5 -62.5v-85.5v-91v-69t0.5 -57.5l1 -55.5t1.5 -64.5t2 -83.5q25 0 51.5 1t53.5 5q-3 -11 -3 -22
q0 -8 0.5 -12.5t2.5 -9.5q-17 2 -49.5 3.5t-60.5 1.5h-19.5t-16.5 -1t-17 -2t-22 -2q2 31 3 63t1 84v559z" />
    <glyph glyph-name="backslash" unicode="\" horiz-adv-x="278" 
d="M-7 673q6 -2 12.5 -2.5t17.5 -0.5t18 0.5t14 2.5l231 -692q-6 2 -11.5 2.5t-16.5 0.5t-18 -0.5t-15 -2.5z" />
    <glyph glyph-name="bracketright" unicode="]" horiz-adv-x="333" 
d="M227 -19l2 -100q-20 3 -36.5 4t-34.5 1q-29 0 -56 -1t-56 -4q2 5 3 9.5t1 12.5t-1 13t-3 10q18 -3 31.5 -4t25 -2t23 -1h25.5q2 60 3 95.5t1.5 65.5t0.5 62.5v85.5v90.5v69.5t-0.5 57.5l-1 55.5t-1.5 64.5t-2 83.5q-25 0 -51.5 -1t-53.5 -5q3 10 3 22q0 8 -0.5 12.5
t-2.5 9.5q17 -2 49.5 -3.5t60.5 -1.5h19.5t16.5 1t17 1.5t22 2.5q-2 -31 -3 -63t-1 -84v-559z" />
    <glyph glyph-name="asciicircum" unicode="^" horiz-adv-x="593" 
d="M265 659h63l169 -418h-69l-133 339l-130 -339h-69z" />
    <glyph glyph-name="underscore" unicode="_" 
d="M0 -75h500v-50h-500v50z" />
    <glyph glyph-name="quoteleft" unicode="&#x2018;" horiz-adv-x="250" 
d="M143 467q-2 -7 -5 -15.5t-8.5 -16t-14.5 -13t-22 -5.5q-22 0 -32.5 13.5t-10.5 28.5q0 13 5 23.5t10 18.5l121 202q11 -7 22 -8z" />
    <glyph glyph-name="a" unicode="a" 
d="M327 245q-65 -10 -102.5 -22.5t-57.5 -27.5t-25.5 -33t-5.5 -38q0 -24 8.5 -40.5t21 -26t27.5 -13.5t28 -4q19 0 38 7t34 20t24.5 30t9.5 38v110zM76 361l4 65l27 20t35 20t44.5 15t55.5 6q29 0 66.5 -8.5t67.5 -36.5q17 -17 29 -41.5t12 -70.5q0 -11 -0.5 -37
t-1.5 -54.5t-1.5 -53.5t-0.5 -35q0 -33 0.5 -55.5t4 -36t11 -19.5t21.5 -6q9 0 15 1.5t10 3.5l1 -28q-17 -8 -34 -15t-38 -7q-25 0 -46.5 15.5t-29.5 49.5q-12 -12 -26 -24.5t-32 -22.5t-41 -16.5t-52 -6.5q-39 0 -65 13t-42.5 33t-23.5 43t-7 44q0 40 14.5 64.5t38 40
t53.5 23.5t60 15l87 19q21 5 29 16t8 32q0 51 -31.5 80t-80.5 29q-31 0 -51.5 -8.5t-33.5 -20.5t-19.5 -24.5t-9.5 -20.5h-27z" />
    <glyph glyph-name="b" unicode="b" horiz-adv-x="611" 
d="M316 24q40 0 68 18t45.5 48t25.5 68.5t8 80.5q0 58 -14.5 96t-36 60.5t-47 31t-46.5 8.5q-30 0 -57.5 -12.5t-47.5 -36.5q-9 -11 -17 -25t-14 -33t-9.5 -45t-3.5 -60q0 -42 8.5 -78.5t26 -63.5t45 -42t66.5 -15zM80 -5q2 34 3.5 75.5t2 84l1 85t0.5 78.5v70.5v80t-0.5 79
t-1.5 67.5q0 16 -0.5 29.5l-1 27t-1.5 28t-2 33.5l27 -4t27 -2q26 0 52 6q-2 -31 -3 -55t-1.5 -45.5l-1 -43t-1 -49t-1 -62t-1.5 -82.5q7 10 19 25.5t31.5 29.5t47 24.5t65.5 10.5q43 0 83.5 -15t72 -45.5t50 -76t18.5 -106.5q0 -56 -16.5 -104.5t-47.5 -83.5t-75.5 -55
t-101.5 -20q-32 0 -57 6.5t-44 17t-33.5 23.5t-26.5 25q-16 -11 -31 -29t-22 -28h-29z" />
    <glyph glyph-name="c" unicode="c" 
d="M470 79q-7 -20 -8.5 -33.5t-2.5 -24.5q-23 -15 -60.5 -27t-87.5 -12q-71 0 -121.5 21.5t-82.5 57t-46.5 80.5t-14.5 93q0 57 18 104t52 80.5t83 51.5t111 18q45 0 86 -9t79 -31q-11 -29 -15.5 -50t-6.5 -35h-12q-11 28 -26.5 44.5t-32 25t-33.5 11t-30 2.5
q-84 0 -126.5 -55t-42.5 -149q0 -69 19 -111t46.5 -65t57.5 -30.5t52 -7.5q31 0 70 12.5t66 41.5z" />
    <glyph glyph-name="d" unicode="d" horiz-adv-x="611" 
d="M284 31q42 0 69 14.5t44 37.5q7 9 14 21t13 30.5t10 44.5t4 63q0 30 -4 60t-18 57q-25 47 -59 63t-67 16q-36 0 -60.5 -12.5t-40.5 -32t-24.5 -43.5t-12.5 -46.5t-4.5 -40.5t-0.5 -26q0 -57 12.5 -96t32 -63.5t44 -35.5t48.5 -11zM44 232q0 59 17 106.5t47.5 81
t72.5 51.5t91 18q35 0 62.5 -9t48 -22.5t33.5 -30t19 -31.5q1 85 0.5 174.5t-4.5 162.5l21.5 -4t28.5 -2t30.5 2l24.5 4q-5 -106 -7.5 -210.5t-2.5 -210.5q0 -78 0.5 -158.5t2.5 -158.5q-11 2 -20.5 4t-26.5 2t-27.5 -2l-21.5 -4q2 28 2.5 49t0.5 32q-25 -46 -71 -70.5
t-99 -24.5q-38 0 -77.5 14.5t-71.5 45t-52.5 78t-20.5 113.5z" />
    <glyph glyph-name="e" unicode="e" horiz-adv-x="556" 
d="M408 280q0 12 -2 39.5t-13 55.5t-35.5 49.5t-69.5 21.5q-66 0 -98.5 -45.5t-39.5 -120.5h258zM149 238q0 -11 0.5 -26t3 -32.5t8 -36.5t15.5 -36q17 -28 37 -44t39.5 -23.5t36 -9t27.5 -1.5q37 0 64 9.5t46.5 23t31 27t17.5 21.5l12 -3q-5 -21 -5.5 -34.5t-1.5 -25.5
q-33 -32 -79 -48.5t-107 -16.5q-57 0 -102.5 17.5t-77 50t-48.5 78.5t-17 104q0 52 14.5 98t44 80.5t74.5 55t107 20.5q56 0 94 -14.5t62.5 -37.5t37 -51.5t18.5 -56t6.5 -51.5t0.5 -37h-359z" />
    <glyph glyph-name="f" unicode="f" horiz-adv-x="333" 
d="M327 649l-7 -4q-13 5 -26.5 8.5t-30.5 3.5q-28 0 -43.5 -10.5t-22.5 -25t-8 -29.5t-1 -24q0 -14 1.5 -29.5t3.5 -30t4 -26t4 -17.5q27 0 53.5 0.5t53.5 1.5q-1 -8 -1.5 -14t-0.5 -11t0.5 -9.5t1.5 -9.5q-26 1 -52.5 1.5t-52.5 0.5l1 -163v-51t1 -73.5l2 -78t4 -64.5
q-11 2 -23.5 4t-29.5 2t-29.5 -2l-24.5 -4q3 26 4.5 60.5l3 71t2 71.5t0.5 62q0 33 -0.5 75t-2.5 90q-21 0 -42 -0.5t-42 -1.5q1 6 1.5 11t0.5 10t-0.5 10.5t-1.5 12.5q21 -1 42.5 -1.5t42.5 -0.5q1 58 18.5 107.5t44.5 85.5t61 56.5t70 20.5q10 0 15.5 -0.5t11.5 -2.5z" />
    <glyph glyph-name="g" unicode="g" horiz-adv-x="556" 
d="M278 -235q39 0 69 10.5t50 27.5t30.5 40t10.5 48q0 35 -16.5 56t-41 32.5t-52.5 15.5t-52 4q-9 0 -34.5 -2t-52.5 -12.5t-48 -34t-21 -66.5q0 -56 43.5 -87.5t114.5 -31.5zM264 202q34 0 56 13t34.5 32.5t17.5 42.5t5 44q0 33 -9.5 55.5t-25 37t-35 21t-38.5 6.5
q-38 0 -59.5 -15.5t-32.5 -36.5t-14 -43.5t-3 -36.5q0 -63 30.5 -91.5t73.5 -28.5zM65 325q0 40 15.5 70.5t42 51t62 31t75.5 10.5q17 0 33.5 -1t33.5 -4l33 -5t24 -3t21.5 -1.5t25.5 -0.5h21t18.5 0.5t21.5 1t30 2.5l-2 -12.5t-1 -12.5q0 -7 1 -13t2 -13q-20 2 -45.5 2
h-46.5q18 -16 30 -40t12 -56q0 -40 -15.5 -70.5t-42.5 -51.5t-63.5 -31.5t-79.5 -10.5q-4 0 -15 0.5t-23 1.5t-21.5 1.5t-10.5 0.5q-22 0 -33 -15t-11 -33q0 -10 3 -19.5t14.5 -17t35 -12t64.5 -4.5h14.5t21.5 0.5t21 0.5h14q32 -1 54 -4.5t38 -8.5t26 -12t18 -14
q19 -17 29.5 -41t10.5 -53q0 -27 -11.5 -64t-41.5 -70.5t-81 -57t-130 -23.5q-60 0 -101 14t-65.5 35.5t-35 48t-10.5 51.5q0 34 14 58t33 39t37 23t26 11q-24 7 -39 17t-22.5 21t-10 23t-2.5 22q0 25 10.5 43t24 29.5t27 17.5t19.5 8q-52 20 -74.5 57t-22.5 83z" />
    <glyph glyph-name="h" unicode="h" horiz-adv-x="611" 
d="M180 388q10 18 25 35.5t36.5 31.5t50 22.5t64.5 8.5q61 0 96 -19t51.5 -46.5t20.5 -57.5t4 -51q0 -3 -0.5 -17t-0.5 -35t-1 -45.5t-1 -47.5t-0.5 -41.5t-0.5 -26.5v-22t0.5 -31.5t1 -30.5t1.5 -20q-11 3 -21.5 4.5t-29.5 1.5q-20 0 -31 -1.5t-22 -4.5q3 40 5 79.5t3 71.5
t1 54.5v29.5q0 37 -2.5 72.5t-14 62.5t-34.5 43.5t-65 16.5q-37 0 -62 -13.5t-40 -30.5q-7 -8 -13.5 -18t-11 -25t-7 -38t-2.5 -57q0 -55 0.5 -92t1.5 -64t2 -48.5t3 -43.5q-11 3 -23.5 4.5t-30.5 1.5t-29.5 -1.5t-22.5 -4.5q3 61 5 129.5t2 129.5v217q0 51 -0.5 86t-1 63
t-1.5 54t-2 59l22.5 -4t29.5 -2q17 0 30 2t24 4q0 -6 -1 -19.5t-2 -30t-1.5 -33.5t-0.5 -29q0 -32 -0.5 -51.5t-0.5 -33t-0.5 -25t-0.5 -26.5z" />
    <glyph glyph-name="i" unicode="i" horiz-adv-x="278" 
d="M196 643q0 -23 -16 -38.5t-39 -15.5q-22 0 -38 15.5t-16 38.5t16 39t38 16q23 0 39 -16t16 -39zM96 249q0 85 -2.5 138t-5.5 92q11 -3 21.5 -4.5t27.5 -1.5t29 1.5t23 4.5l-2 -41.5t-2 -49.5t-1.5 -70t-0.5 -102v-31.5t1 -37l2.5 -58t3.5 -94.5q-10 3 -19.5 4.5
t-29.5 1.5q-21 0 -31 -1.5t-21 -4.5q1 28 2.5 60.5t2.5 65.5t1.5 66t0.5 62z" />
    <glyph glyph-name="j" unicode="j" horiz-adv-x="278" 
d="M18 -234q12 4 24 10t23 20.5t19 41.5t12 73q0 8 0.5 28.5t1 47.5t0.5 57.5v59.5v52.5v35.5q0 60 -3 137t-7 150q11 -2 24.5 -4t29.5 -2q15 0 28.5 2t25.5 4q-2 -49 -3.5 -82.5t-2.5 -66t-1 -71v-97.5v-134t-1 -74t-3 -39t-5 -28q-2 -10 -9.5 -32.5t-24.5 -47t-47 -45
t-78 -26.5zM197 643q0 -23 -16 -38.5t-39 -15.5q-22 0 -38 15.5t-16 38.5t16 39t38 16q23 0 39 -16t16 -39z" />
    <glyph glyph-name="k" unicode="k" horiz-adv-x="556" 
d="M526 -5q-13 2 -28 4t-36 2q-20 0 -35 -2t-28 -4l-43.5 59t-42 52.5l-44.5 51.5l-51 58q-6 6 -13 11t-12 5q-6 0 -6.5 -5.5t-0.5 -11.5l1 -88q0 -16 1 -37.5t2.5 -42t3 -35t1.5 -17.5q-11 2 -23.5 4t-29.5 2t-28 -1.5t-22 -4.5q3 91 3.5 180t0.5 180v92.5t-0.5 97.5
t-1.5 96.5l-2 91.5q11 -2 23.5 -4t29.5 -2t29 2l23 4q-4 -55 -6.5 -109.5t-2.5 -110.5q0 -43 -1.5 -88t-1.5 -90q0 -12 0.5 -31.5t0.5 -29.5q0 -8 8 -8q3 0 11.5 7.5l15.5 13.5l43 40t50.5 49l50 52.5t41.5 50.5q11 -4 24 -5t25 -1q18 0 31.5 2t23.5 4l-228 -199l156 -183
l88 -93v-9z" />
    <glyph glyph-name="l" unicode="l" horiz-adv-x="278" 
d="M93 380q0 57 -0.5 98.5t-0.5 72.5t-0.5 53.5l-1 43t-1.5 40.5t-3 45l25.5 -4t26.5 -2t26.5 2t26.5 4l-3.5 -95.5t-2 -82t-1 -86.5t-0.5 -111q0 -59 0.5 -103.5t1.5 -84.5t2.5 -81.5l3.5 -93.5q-11 3 -22.5 5t-31.5 2q-19 0 -29.5 -2t-21.5 -5l3.5 67t2 67.5t0.5 96.5v154
z" />
    <glyph glyph-name="m" unicode="m" horiz-adv-x="889" 
d="M294 427q-26 0 -49 -10.5t-41 -38.5q-9 -14 -14.5 -30.5t-8.5 -38t-3.5 -50t-0.5 -66.5t1.5 -89.5t7.5 -108.5q-15 3 -27 4.5t-25 1.5t-24.5 -1.5t-27.5 -4.5q2 55 3 89t2 57.5t1 42v43.5q0 27 -0.5 47.5t-1 46t-2 63t-3.5 99.5l22.5 -4t26.5 -2q14 0 27 2t24 4
q-2 -10 -4 -33.5t-2 -53.5q34 54 75 72t79 18q51 0 90 -21t59 -69q15 25 34.5 42t41.5 27.5t45 15.5t44 5q11 0 27 -2t34 -7.5t36 -15.5t32 -27q20 -25 25 -51.5t5 -47.5q0 -4 -0.5 -27t-0.5 -51t-0.5 -54t-0.5 -36q0 -44 2 -86.5l4 -85.5q-16 3 -28 4.5t-25 1.5
q-26 0 -51 -6q3 36 5 65t3 54t1 48v47q0 49 -1 79t-3 48t-6 28.5t-10 20.5q-16 26 -39 34t-43 8q-44 0 -68 -19.5t-36 -48t-14.5 -60t-2.5 -55.5q0 -57 2.5 -123t5.5 -126q-12 3 -22.5 4.5t-31.5 1.5q-20 0 -30 -1.5t-20 -4.5q5 48 6.5 104.5t1.5 109.5q0 14 -0.5 37.5
t-2.5 48.5t-5 48t-9 35q-8 15 -18.5 25t-22.5 15t-24.5 7t-23.5 2z" />
    <glyph glyph-name="n" unicode="n" horiz-adv-x="611" 
d="M91 270q0 50 -1.5 105t-3.5 108q14 -2 25 -4t25 -2t25 2t24 4q0 -6 -1 -19.5t-1.5 -28.5t-1.5 -28.5t-1 -18.5q10 18 25 35.5t37 31.5t50 22.5t64 8.5q61 0 96 -19t51.5 -46.5t20.5 -57.5t4 -51q0 -3 -0.5 -17t-0.5 -35t-1 -45.5t-1 -47.5t-0.5 -41.5t-0.5 -26.5v-22
t0.5 -31.5t1 -30.5t1.5 -20q-11 3 -21.5 4.5t-29.5 1.5q-20 0 -31 -1.5t-22 -4.5q3 40 5 79.5t3 71.5t1 54.5v29.5q0 37 -2.5 72.5t-14 62.5t-34.5 43.5t-65 16.5q-82 0 -119 -69q-7 -13 -10.5 -38.5t-5 -54.5t-2 -56.5t-0.5 -45.5q0 -59 3 -98.5l5 -67.5q-11 2 -23.5 4
t-29.5 2t-29.5 -2t-23.5 -4q2 23 3.5 47.5t3 56.5t2.5 73.5t1 97.5z" />
    <glyph glyph-name="o" unicode="o" horiz-adv-x="611" 
d="M308 447q-40 0 -67 -13.5t-44.5 -34.5t-27 -46t-14 -48.5t-5 -42t-0.5 -25.5q0 -105 42 -160.5t111 -55.5q36 0 65.5 15t50 43t32 67.5t11.5 89.5q0 29 -6 65.5t-22.5 69t-46.5 54.5t-79 22zM302 487q71 0 121 -21.5t81.5 -56.5t45.5 -79t14 -90q0 -60 -19.5 -107.5
t-54.5 -81.5t-83 -52t-105 -18q-40 0 -84.5 10.5t-82 39t-62.5 77.5t-25 126q0 58 18.5 105t52 80t80.5 50.5t103 17.5z" />
    <glyph glyph-name="p" unicode="p" horiz-adv-x="611" 
d="M324 438q-41 0 -68 -15t-44 -37q-8 -9 -15 -21.5t-13 -31t-9.5 -44.5t-3.5 -63q0 -33 3.5 -56.5t9 -40t13 -28.5t15.5 -21q20 -23 45.5 -36t60.5 -13q36 0 60.5 12.5t40.5 32.5t24.5 43.5t12.5 46t4.5 40.5t0.5 26q0 57 -12.5 96t-32 63.5t-44 35.5t-48.5 11zM564 237
q0 -59 -17 -106.5t-47.5 -81t-72.5 -51.5t-91 -18q-35 0 -63 9t-48 22.5t-33 30t-19 31.5v-106.5t0.5 -88t1.5 -76t3 -69.5q-11 3 -22.5 4.5t-29.5 1.5q-19 0 -30.5 -1.5t-23.5 -4.5q6 98 8.5 195.5t2.5 195.5q0 69 -1.5 159.5t-3.5 199.5l23 -4t26 -2t26 2l23 4
q-2 -21 -2.5 -34.5t-1 -23.5t-0.5 -17.5v-15.5q6 10 17.5 26t31.5 31.5t49.5 27t71.5 11.5q37 0 76.5 -14t72 -44.5t53 -78t20.5 -114.5z" />
    <glyph glyph-name="q" unicode="q" horiz-adv-x="611" 
d="M149 238q0 -10 0.5 -29t4.5 -42t12.5 -47.5t24.5 -44t40.5 -32t60.5 -12.5q32 0 52.5 9.5t33.5 19.5q42 32 52 76t10 100q0 13 -1 29t-3.5 32.5t-7 32.5t-11.5 29q-12 24 -28 39.5t-33 24t-34 12t-32 3.5q-65 0 -103 -54t-38 -146zM46 237q0 66 20.5 113.5t53 78t72 45
t77.5 14.5q60 0 110 -31q26 -17 38 -32.5t22 -32.5q0 29 -1.5 53t-2.5 38q11 -3 21.5 -4.5t27.5 -1.5q16 0 27 2l22 4l-2 -47t-1.5 -58t-1 -90.5t-0.5 -144.5v-91.5t0.5 -72t1 -60.5t2 -56t3 -59.5t4.5 -70.5q-11 3 -23.5 4.5t-30.5 1.5q-17 0 -29 -1.5t-23 -4.5
q2 30 3 60.5t1.5 68.5t0.5 89v122q-5 -14 -17.5 -30t-33 -30t-48.5 -23.5t-64 -9.5q-50 0 -92 18t-72.5 51.5t-47.5 81t-17 106.5z" />
    <glyph glyph-name="r" unicode="r" horiz-adv-x="389" 
d="M356 388q-10 5 -21 9t-31 4q-21 0 -38 -6t-29 -15t-19.5 -19t-11.5 -17q-5 -12 -8.5 -23.5t-5 -30t-2 -47.5t-0.5 -75v-28.5t1 -36.5q1 -26 2 -42t1.5 -26.5t1 -19t0.5 -20.5q-11 3 -22.5 4.5t-31.5 1.5q-18 0 -28.5 -1.5t-21.5 -4.5q3 24 5 45t3.5 48t2 65t0.5 97
q0 42 -0.5 74.5t-2 59.5t-3 51t-2.5 48q11 -3 22.5 -4.5t28.5 -1.5t28 1.5t23 4.5q-6 -42 -7 -70.5t-1 -42.5q6 15 19 36.5t34 40.5t52.5 31t75.5 8q-3 -11 -6 -26.5t-3 -38.5v-10.5t2 -17.5z" />
    <glyph glyph-name="s" unicode="s" horiz-adv-x="444" 
d="M333 370q-3 11 -10 28t-29 32q-16 11 -34.5 14t-30.5 3q-46 0 -69.5 -21.5t-23.5 -53.5q0 -22 10 -37t24 -25.5t30.5 -16.5t29.5 -9q33 -9 62.5 -18t51.5 -24t34.5 -39t12.5 -61q0 -29 -10.5 -57.5t-33.5 -51.5t-59.5 -37.5t-88.5 -14.5q-30 0 -55.5 5.5t-44.5 12.5
t-31.5 14t-16.5 10q5 9 9 21t7 23.5t4.5 21t2.5 14.5l12 3q5 -13 15.5 -31t38.5 -35q19 -11 37.5 -15t35.5 -4q19 0 37.5 5t32.5 15t22.5 25.5t8.5 36.5t-7 35t-23 24.5t-43 20l-66 22.5q-16 5 -36 14t-37 24.5t-29 38.5t-12 56q0 21 7.5 47t27 48.5t53 38t85.5 15.5
t83.5 -12t48.5 -21q-8 -20 -13 -39t-7 -45h-13z" />
    <glyph glyph-name="t" unicode="t" horiz-adv-x="333" 
d="M104 426h-20t-16 -0.5t-18 -1.5t-26 -2q1 5 1.5 11t0.5 14t-0.5 13.5t-1.5 11.5l32 -3q10 -1 22 -1.5t26 -0.5v49t-2 62q10 2 25 8t29.5 13t27.5 14l20 11q-2 -31 -3 -50t-1.5 -34.5l-1 -31.5t-1.5 -41q28 0 55 1.5t53 3.5q-1 -6 -1.5 -11.5t-0.5 -13.5t0.5 -13.5
t1.5 -10.5q-19 1 -48 2t-60 1q-3 -69 -4 -137t-1 -137q0 -61 13.5 -93t56.5 -32q7 0 21.5 2t24.5 4q-2 -8 -2 -13t2 -15q-17 -10 -42.5 -14.5t-42.5 -4.5q-43 0 -68.5 19t-38.5 41q-6 10 -10 28.5t-4 65.5v13.5v21t0.5 36t1.5 57.5v158z" />
    <glyph glyph-name="u" unicode="u" horiz-adv-x="611" 
d="M290 48q47 0 75.5 23t40.5 47q14 27 16 56t2 50q0 24 -0.5 59.5l-1 72.5t-2 71l-2.5 56q11 -2 24.5 -4t29.5 -2q17 0 27.5 2l21.5 4q-3 -45 -6.5 -110.5t-3.5 -143.5q0 -56 0.5 -92t1 -61t1.5 -43.5t3 -37.5q-13 2 -23.5 4t-25.5 2q-14 0 -23.5 -1.5t-23.5 -4.5
q1 11 1.5 19t1 17.5t1 23t1.5 35.5q-19 -34 -41.5 -54.5t-45 -31.5t-43 -14.5t-34.5 -3.5q-59 0 -93 19.5t-51.5 47t-22.5 57t-5 50.5q0 11 1 41t1.5 64t1.5 64.5t1 43.5q0 28 -1 61t-3 49q11 -3 22.5 -4.5t28.5 -1.5q16 0 27.5 1.5t22.5 4.5q-5 -55 -7 -112.5t-2 -98.5
q0 -44 1.5 -84.5t11.5 -71.5t32 -49.5t62 -18.5z" />
    <glyph glyph-name="v" unicode="v" 
d="M264 108q2 -2 3 -2t3 2l11 23q7 14 23 56.5l35 96l37 108t29 91.5l19.5 -4t20.5 -2q17 0 27 2t19 4l-51.5 -105l-58 -125.5t-56 -132t-44.5 -125.5q-5 2 -14 4t-23 2q-16 0 -24 -2t-14 -4q-41 127 -92.5 247.5t-108.5 240.5q14 -3 27 -4.5t30 -1.5q23 0 38 2t24 4
l31.5 -92l35.5 -98.5l34.5 -91t28.5 -69.5z" />
    <glyph glyph-name="w" unicode="w" horiz-adv-x="778" 
d="M378 348q-3 0 -9 -13.5t-13 -33.5q-3 -9 -13 -37l-24 -69l-32 -92.5l-36 -107.5q-7 2 -16.5 4t-21.5 2q-14 0 -22 -2t-13 -4q-3 13 -14 46l-26.5 77.5l-34.5 95.5l-38 101l-36.5 94l-29.5 74q8 -2 23 -4t35 -2q6 0 21 0.5t37 5.5q8 -37 26 -95l44 -138q3 -8 10 -30
l15 -45t15 -41t10 -18t16 29t31 78.5t38.5 116.5t40.5 143q12 -3 20.5 -4.5t21.5 -1.5q14 0 22.5 2t18.5 4q7 -32 15.5 -62t18.5 -61.5l21.5 -66.5l25.5 -78q15 -46 25 -72.5t15 -26.5q3 0 15 26.5t29.5 74.5t39.5 115.5t45 150.5q9 -3 17 -4t19 -1q17 0 26 1.5t17 3.5
q-11 -21 -27 -56l-34 -78l-37.5 -91l-38 -95l-35.5 -90.5t-29 -77.5q-5 2 -14 4t-20 2q-5 0 -14 -1t-22 -5l-22.5 73.5t-22.5 68l-26 73.5l-32 90l-13 34.5t-8 13.5z" />
    <glyph glyph-name="x" unicode="x" 
d="M287 262l43.5 -58.5l52 -72l52 -73.5l44.5 -63q-12 2 -28 4t-33 2t-34 -2t-28 -4q-29 51 -60.5 98l-65.5 95l-37.5 -54.5l-37 -55l-32 -48.5l-22.5 -35q-8 2 -18.5 4t-25.5 2q-16 0 -25.5 -2t-17.5 -4l48.5 54.5l53.5 62l50.5 61.5t39.5 54l-45 61l-51.5 68.5l-52.5 67.5
l-46 59q15 -2 32.5 -4t38.5 -2q19 0 32 1.5t28 4.5l46.5 -80t73.5 -105l24.5 35l31.5 46l34.5 51.5t32.5 52.5q6 -2 14.5 -4t25.5 -2q15 0 28.5 2t19.5 4q-5 -6 -9 -10t-9 -9.5l-12 -13t-17 -19.5l-42 -49.5l-30 -36l-29 -35z" />
    <glyph glyph-name="y" unicode="y" 
d="M178 81l-25 60l-28.5 67.5l-28.5 67.5l-25 60l-18 44.5t-14 32.5l-14.5 31l-18.5 39q13 -3 26.5 -4.5t36.5 -1.5q17 0 28 0.5t26 5.5q3 -10 16 -46l31 -84l38.5 -102l39.5 -100q5 -13 10.5 -23.5t10.5 -10.5q4 0 20 34.5t37 87.5t44 118t41 126q8 -2 19 -4t25 -2t24 2
t16 4q-7 -11 -13 -22t-17 -33.5l-28.5 -61l-47.5 -103.5l-16.5 -36l-17.5 -36l-101 -226.5t-83 -226.5q-5 2 -14.5 4t-20.5 2q-18 0 -45 -6l65 122t62 122z" />
    <glyph glyph-name="z" unicode="z" 
d="M20 21l85 105.5l84 106.5q9 11 29 38.5l42.5 58l42 57.5t27.5 37q-18 2 -32.5 2.5t-36.5 0.5q-5 0 -29 -0.5t-55.5 -2t-64.5 -4.5t-57 -8q2 9 3 16.5t1 17.5q0 11 -1 19t-3 16q16 -2 30 -3.5t28 -3.5q32 -4 61 -5t65 -1q59 0 117.5 1t117.5 5v-18q-11 -11 -19 -20
l-19 -21.5l-26 -31l-38.5 -49l-58 -74.5l-83.5 -108l-13 -16.5t-19.5 -26.5l-21 -31.5t-17.5 -31.5h59t74.5 1t85 4t90.5 8q-2 -7 -3 -13t-1 -14t1 -17.5t3 -19.5q-9 1 -31 2t-53 2t-68.5 1.5t-76.5 0.5q-75 0 -131 -1.5t-88 -4.5v26z" />
    <glyph glyph-name="braceleft" unicode="{" horiz-adv-x="407" 
d="M38 303q39 2 66.5 13t39.5 22q20 17 24.5 38t4.5 58v46q0 35 3 70.5t21.5 64.5t58.5 48.5t114 23.5v-40q-48 -3 -74 -18t-37.5 -36t-13.5 -46.5t-2 -49.5v-42q0 -26 -2 -54t-14 -52.5t-38.5 -42t-74.5 -23.5q48 -6 74 -23t38.5 -41t14.5 -52t2 -56v-49q0 -21 2 -45
t14 -45t37.5 -35.5t73.5 -17.5v-40q-71 4 -110.5 21.5t-58.5 45t-23.5 62t-4.5 71.5v53q0 21 -2 42.5t-15 39.5t-40 31t-78 18v40z" />
    <glyph glyph-name="bar" unicode="|" horiz-adv-x="222" 
d="M79 750h65v-1000h-65v1000z" />
    <glyph glyph-name="braceright" unicode="}" horiz-adv-x="407" 
d="M370 263q-39 -2 -66.5 -13t-39.5 -22q-20 -17 -24.5 -38t-4.5 -58v-46q0 -35 -3 -70.5t-21.5 -64.5t-58.5 -48.5t-114 -23.5v40q48 3 74 18t37.5 36t13.5 46.5t2 49.5v42q0 26 2 54t14 52.5t38.5 42t74.5 23.5q-48 6 -74.5 23t-38.5 41t-14 52t-2 56v49q0 21 -2 45
t-14 45t-37.5 35.5t-73.5 17.5v40q70 -4 110 -21.5t59 -45t23.5 -62t4.5 -71.5v-53q0 -21 2 -42.5t15 -39.5t40 -31.5t78 -17.5v-40z" />
    <glyph glyph-name="asciitilde" unicode="~" horiz-adv-x="593" 
d="M34 173q2 26 10.5 51t24 44.5t38 31.5t51.5 12q32 0 69 -11t75 -25t73.5 -25.5t61.5 -11.5q34 0 52.5 22.5t24.5 56.5h45q-2 -26 -10.5 -51t-24 -44.5t-38 -31.5t-51.5 -12q-31 0 -68.5 11.5t-75.5 25.5t-73 25t-62 11q-11 0 -23.5 -4.5t-23.5 -14t-19 -24.5t-11 -36h-45
z" />
    <glyph glyph-name="exclamdown" unicode="&#xa1;" horiz-adv-x="444" 
d="M271 -107q2 -14 2.5 -21.5t0.5 -15.5q0 -5 -1 -17t-6.5 -24.5t-16.5 -22t-32 -9.5t-32.5 9.5t-16.5 22t-6 24.5t-1 17q0 9 0.5 18t2.5 20l40 404q13 -1 27 0zM216 356q-26 0 -44.5 18.5t-18.5 45.5q0 26 18.5 44.5t44.5 18.5q27 0 45.5 -18.5t18.5 -44.5t-18.5 -45
t-45.5 -19z" />
    <glyph glyph-name="cent" unicode="&#xa2;" 
d="M337 445q-19 2 -35 0t-20 -3q-44 -8 -70.5 -32t-40 -54.5t-17.5 -62t-4 -55.5q0 -40 6.5 -68.5t16 -47.5t19.5 -30.5t17 -18.5zM244 47q12 -5 31 -12t50 -7q16 0 34 3t36 9.5t35 17t31 24.5l9 -3q-7 -20 -8.5 -33.5t-2.5 -24.5q-23 -16 -61 -27.5t-86 -11.5
q-33 0 -55 3.5t-32 5.5l-7.5 -22.5t-7 -22.5l-7.5 -27l-10 -36q-14 10 -24.5 12.5t-24.5 4.5l18.5 47.5l18.5 47.5q2 3 2 4.5t2 4.5q-12 5 -35 19.5t-46.5 41t-40.5 68t-17 100.5q0 57 18 104t52 80.5t83 52t111 18.5q15 0 25 -0.5t16 -1.5q5 13 15.5 47.5t21.5 74.5
q16 -11 27 -14t23 -4q-12 -27 -18.5 -43.5l-11 -27.5t-7.5 -19.5l-7 -20.5q32 -7 50.5 -15.5t30.5 -15.5q-11 -29 -15.5 -50t-6.5 -35h-12q-5 12 -17.5 33.5t-45.5 38.5z" />
    <glyph glyph-name="sterling" unicode="&#xa3;" 
d="M449 564q-13 39 -41.5 59t-65.5 20q-46 0 -70.5 -22t-36 -52t-13.5 -61t-2 -49q0 -32 1 -52t3 -38q28 0 50 0.5t40.5 1t35 1.5l33.5 2q-2 -6 -3 -12.5t-1 -14.5t1 -14t3 -12l-40.5 3.5t-34.5 2t-37 0.5h-48q0 -21 -2.5 -58t-20.5 -83q-20 -49 -41 -73t-35 -36h125
q26 0 60 0.5l68 1t63.5 2t47.5 3.5l-3.5 -21t-1.5 -24q0 -14 1.5 -23.5t3.5 -20.5q-5 0 -24.5 1.5t-49 3t-66 2.5t-73.5 1h-64t-59 -2q-32 -2 -51.5 -2.5t-33 -1.5t-25 -1.5t-27.5 -0.5q2 8 3.5 15t1.5 21q0 13 -1.5 20.5t-3.5 15.5q31 -5 54 4.5t38 30.5t22 50.5t7 64.5
q0 28 -2 55.5t-5 54.5h-36t-24.5 -0.5l-21 -1t-24.5 -1.5q2 6 3 12t1 13t-1 13t-3 13q18 -2 29.5 -3t21.5 -1.5t22 -1t30 -0.5q-2 12 -3.5 29t-1.5 40q0 59 11.5 94.5t31.5 60.5q13 16 31 32.5t42.5 29.5t55 21t67.5 8q24 0 55.5 -5.5t69.5 -22.5q-10 -21 -15 -44.5
t-7 -47.5h-14z" />
    <glyph glyph-name="fraction" unicode="&#x2044;" horiz-adv-x="167" 
d="M-109 -17q-6 2 -11.5 2.5t-14.5 0.5q-11 0 -16.5 -0.5t-12.5 -2.5l438 690q6 -2 12 -2.5t17 -0.5t16.5 0.5t11.5 2.5z" />
    <glyph glyph-name="fraction" unicode="&#x2215;" horiz-adv-x="167" 
d="M-109 -17q-6 2 -11.5 2.5t-14.5 0.5q-11 0 -16.5 -0.5t-12.5 -2.5l438 690q6 -2 12 -2.5t17 -0.5t16.5 0.5t11.5 2.5z" />
    <glyph glyph-name="yen" unicode="&#xa5;" 
d="M205 265h-68.5t-67.5 -2q4 12 4 28q0 7 -1.5 12.5t-2.5 9.5l61 -2t67 -1l-17.5 31t-16.5 32l-35 70l-35.5 69l-38.5 74l-44 86q23 -5 40.5 -5.5t25.5 -0.5q10 0 26.5 1t30.5 5l17 -48l25 -68l29 -74.5t29 -68.5t24.5 -50.5t15.5 -19.5q6 0 19 29t30 75.5t36.5 105.5
l39.5 119q11 -4 23.5 -5t24.5 -1q14 0 23 1t21 5l-58.5 -119l-59.5 -119l-45 -88q-8 -14 -11 -21t-8 -15q63 0 128 3q-2 -8 -3 -14.5t-1 -10.5q0 -8 1 -14t3 -11q-37 1 -69.5 1.5t-66.5 0.5v-65h41h32t29.5 0.5t33.5 1.5q-2 -8 -3 -15t-1 -12q0 -8 1 -13t3 -10q-8 0 -27 0.5
t-40.5 1t-41 1t-27.5 0.5q0 -37 2 -81t4 -79q-14 5 -27 5.5t-22 0.5q-23 0 -36 -1t-24 -5q5 42 6.5 82t1.5 78h-31.5t-36 -0.5l-36.5 -1t-32 -1.5q4 13 4 28q0 16 -4 22q25 -1 43 -1.5t32.5 -0.5h28.5h32v65z" />
    <glyph glyph-name="florin" unicode="&#x192;" 
d="M428 593q-7 8 -18 15.5t-27 7.5q-23 0 -34 -13t-18 -31q-5 -14 -9 -33.5l-8 -40.5t-6.5 -41.5l-4.5 -35.5q26 0 52.5 1t52.5 4q-2 -8 -3 -13.5t-1.5 -10.5t0 -10.5t0.5 -13.5q-35 2 -63 2.5t-44 0.5q-6 -36 -14 -79t-17.5 -89l-20 -93t-23 -90t-26 -79t-27.5 -61
q-24 -41 -48 -64t-47.5 -34t-45.5 -14t-41 -4q4 9 6.5 17t4 18.5t2.5 24t1 33.5h10q17 -20 43 -20q28 0 42 24t25 80l15.5 82l12 64l10.5 55t11.5 56l14 66.5l17.5 86.5l4 20q-31 0 -58.5 -0.5t-46.5 -2.5q5 17 6 25.5t-1 22.5q27 -2 54.5 -3.5t54.5 -1.5q14 72 38.5 121.5
t55.5 83.5q20 22 40 34.5t38.5 19t34.5 8t28 1.5q-5 -14 -8 -24t-4.5 -20t-1.5 -20.5t1 -25.5z" />
    <glyph glyph-name="section" unicode="&#xa7;" 
d="M353 154q4 3 11 9.5t14 16t12 22.5t5 29q0 22 -9.5 38t-26 28.5t-38 22.5t-46.5 20q-17 7 -32 14l-30.5 14.5t-32 17l-37.5 22.5q-20 -12 -31.5 -32t-11.5 -43t11.5 -41t29 -31.5t38 -24t39.5 -18.5l55 -24.5l35 -16t23.5 -11.5t21.5 -12zM373 555q-5 15 -13.5 30.5
t-22.5 27.5t-32.5 19.5t-42.5 7.5q-48 0 -78 -23.5t-30 -65.5q0 -25 11 -43t31.5 -32t48 -26.5l60.5 -26.5l48.5 -20.5t47.5 -24.5q23 -14 38 -44t15 -65q0 -39 -21.5 -72t-53.5 -62q31 -28 38 -55.5t7 -44.5q0 -36 -14 -68.5t-41 -58t-65.5 -40.5t-86.5 -15q-28 0 -52.5 5
t-44 12.5t-33.5 15.5t-21 14q19 49 16 99h10q20 -51 56.5 -77.5t84.5 -26.5q49 0 83 26t34 76q0 26 -8.5 44t-27 32.5t-47.5 28t-69 30.5q-29 12 -56.5 25.5t-48.5 32t-34 44t-13 61.5q0 30 8.5 52t21 38t25.5 26.5t22 16.5q-4 4 -10 11t-12 17.5t-10 25t-4 34.5
q0 32 10.5 61t32.5 51.5t54.5 36t77.5 13.5q6 0 21.5 -1t37 -5.5t45.5 -14.5t46 -28q-14 -19 -20 -37t-11 -37h-8z" />
    <glyph glyph-name="currency" unicode="&#xa4;" 
d="M250 476q-30 0 -57 -11.5t-47 -31.5t-31.5 -46.5t-11.5 -57.5q0 -30 11.5 -56.5t31.5 -46.5t47 -31.5t57 -11.5t57 11.5t47 31t31.5 46.5t11.5 57q0 31 -11.5 58t-32 46.5t-47 31t-56.5 11.5zM80 203q-5 7 -12 18t-13.5 26.5t-11.5 36t-5 46.5q0 34 11 66t31 60l-64 64
l43 43l64 -64q18 13 47.5 27.5t79.5 14.5q46 0 76 -14t51 -28l64 64l43 -43l-64 -64q20 -28 31 -60t11 -67q0 -24 -5 -44.5t-11.5 -36t-14 -27l-11.5 -17.5l64 -65l-43 -43l-65 65q-28 -20 -59.5 -31.5t-66.5 -11.5q-70 0 -126 42l-65 -64l-43 43z" />
    <glyph glyph-name="quotesingle" unicode="'" horiz-adv-x="250" 
d="M109 409l-26 286h84l-26 -286h-32z" />
    <glyph glyph-name="quotedblleft" unicode="&#x201c;" 
d="M351 467q-2 -7 -5.5 -15.5t-9 -16t-14 -13t-21.5 -5.5q-23 0 -33.5 13.5t-10.5 28.5q0 13 5 23.5t10 18.5l121 202q11 -7 22 -8zM187 467q-2 -7 -5 -15.5t-8.5 -16t-14.5 -13t-22 -5.5q-22 0 -32.5 13.5t-10.5 28.5q0 13 5 23.5l9 18.5l122 202q6 -4 10 -5.5t12 -2.5z
" />
    <glyph glyph-name="guillemotleft" unicode="&#xab;" 
d="M372 440q18 -19 29 -24t19 -7q-12 -14 -28 -34.5l-33.5 -43t-33.5 -45.5t-28 -42l45 -68t71 -96q-17 -5 -27.5 -11t-23.5 -20q-34 60 -68 111l-57 83q12 14 31 40l39 55.5l38 57t27 44.5zM215 440q18 -18 28.5 -23.5t18.5 -7.5l-28 -34l-33 -42.5l-33 -45.5t-28 -42
l44.5 -69t70.5 -96q-16 -5 -26.5 -11t-23.5 -20q-34 60 -68 111.5t-57 83.5q12 13 31 39l39 55.5l37.5 57t27.5 44.5z" />
    <glyph glyph-name="guilsinglleft" unicode="&#x2039;" horiz-adv-x="333" 
d="M210 440q18 -18 29 -23.5t19 -7.5l-28 -34l-33.5 -42.5t-33.5 -45.5t-28 -42l45 -69t71 -96q-17 -5 -27.5 -11t-23.5 -20q-34 60 -68 111.5t-57 83.5q12 13 31 39l39 55.5l38 57t27 44.5z" />
    <glyph glyph-name="guilsinglright" unicode="&#x203a;" horiz-adv-x="333" 
d="M133 49q-22 22 -51 32q42 53 69.5 94l45.5 70q-12 19 -28 42l-33 46l-33 43t-28 33q14 5 25 11t22 20q10 -17 27.5 -44.5l37.5 -56.5l39.5 -55t31.5 -40l-24.5 -34.5l-31 -46l-34.5 -54.5t-35 -60z" />
    <glyph glyph-name="endash" unicode="&#x2013;" 
d="M0 247h500v-60h-500v60z" />
    <glyph glyph-name="dagger" unicode="&#x2020;" 
d="M212 456q0 35 -1 91.5t-6 139.5q10 -3 20 -4.5t27 -1.5t27 1.5t21 4.5q-9 -81 -10.5 -138t-1.5 -93h39.5t49 1t49 2.5t40.5 3.5q-2 -8 -3 -16.5t-1 -19.5q0 -19 4 -38q-41 5 -89.5 7t-88.5 2q0 -99 2.5 -200.5t7.5 -202.5l-21.5 4t-28.5 2q-17 0 -26.5 -1.5t-20.5 -4.5
q3 50 5 92t3.5 87t2 98.5t0.5 125.5q-35 0 -84.5 -1t-93.5 -6q2 8 3 16t1 19t-1 20.5t-3 16.5q17 -2 43 -3.5t52.5 -2t49 -1t33.5 -0.5z" />
    <glyph glyph-name="daggerdbl" unicode="&#x2021;" 
d="M287 223h25.5t33 1t47 3t66.5 6q-2 -14 -3 -22.5t-1 -16.5q0 -10 1 -18.5t3 -16.5q-47 4 -86 5.5t-86 1.5q0 -49 3 -96.5t5 -95.5l-22 4t-24 2t-23 -2l-21 -4q3 47 5.5 96.5t2.5 95.5q-31 0 -75 -1t-97 -6q2 9 3 18t1 19t-1 19t-3 18q15 -2 30.5 -3.5t34.5 -3t45 -2
t62 -0.5v231q-40 0 -65 -1t-42.5 -1.5t-32 -2l-32.5 -3.5q2 12 3 20.5t1 17.5q0 17 -4 37q15 -3 27 -4.5t30 -2.5t44.5 -1.5t70.5 -0.5q0 30 -0.5 50l-1 38.5t-2 40.5t-3.5 57q12 -2 22.5 -4t24.5 -2t24.5 2t18.5 4q-4 -48 -6.5 -93t-2.5 -93q49 -1 91 2t81 8
q-2 -12 -3 -20.5t-1 -19.5q0 -10 1 -17t3 -18q-18 2 -34 3.5t-34.5 2t-43 1t-60.5 0.5v-232z" />
    <glyph glyph-name="periodcentered" unicode="&#xb7;" horiz-adv-x="250" 
d="M126 310q26 0 44.5 -18.5t18.5 -44.5t-18.5 -45t-44.5 -19q-27 0 -45.5 18.5t-18.5 44.5t18.5 45t45.5 19z" />
    <glyph glyph-name="periodcentered" unicode="&#x2219;" horiz-adv-x="250" 
d="M126 310q26 0 44.5 -18.5t18.5 -44.5t-18.5 -45t-44.5 -19q-27 0 -45.5 18.5t-18.5 44.5t18.5 45t45.5 19z" />
    <glyph glyph-name="paragraph" unicode="&#xb6;" 
d="M446 623v-832h-69v832h-120v-832h-69v434q-60 4 -100 26.5t-63 54t-32.5 68.5t-9.5 72q0 34 11 75t39.5 76.5t79 59t128.5 23.5h259v-57h-54z" />
    <glyph glyph-name="bullet" unicode="&#x2022;" 
d="M250 510q35 0 66 -13t54 -36t36.5 -54t13.5 -67q0 -35 -13.5 -66t-36.5 -54t-54 -36.5t-66 -13.5t-66 13.5t-54 36.5t-36.5 54t-13.5 66q0 36 13.5 67t36.5 54t54 36t66 13z" />
    <glyph glyph-name="quotesinglbase" unicode="&#x201a;" horiz-adv-x="250" 
d="M103 63q2 7 5 15.5t8.5 16t14.5 13t22 5.5q23 0 33 -13.5t10 -27.5q0 -19 -14 -42l-122 -203q-6 5 -11.5 6.5t-10.5 1.5z" />
    <glyph glyph-name="quotedblbase" unicode="&#x201e;" 
d="M311 63q2 7 5 15.5t8.5 16t14.5 13t22 5.5q23 0 33 -13.5t10 -27.5q0 -20 -15 -42l-121 -203q-7 5 -12 6.5t-10 1.5zM148 63q2 7 5 15.5t8.5 16t14.5 13t22 5.5q23 0 33.5 -13.5t10.5 -27.5q0 -11 -4 -21t-11 -21l-122 -203q-6 5 -11.5 6.5t-10.5 1.5z" />
    <glyph glyph-name="quotedblright" unicode="&#x201d;" 
d="M312 645q2 7 5 15.5t8.5 16t14.5 13t22 5.5q23 0 33.5 -13.5t10.5 -27.5q0 -11 -4 -21t-11 -21l-122 -203q-6 5 -11.5 6.5t-10.5 1.5zM150 645q1 6 4 15t8.5 16.5t14.5 13t22 5.5q23 0 33.5 -14t10.5 -28q0 -10 -4 -20t-11 -21l-121 -203q-7 5 -12 6.5t-10 1.5z" />
    <glyph glyph-name="guillemotright" unicode="&#xbb;" 
d="M295 49q-11 12 -23.5 19.5t-27.5 12.5q42 53 70 94t46 70q-12 19 -28.5 42l-33.5 46l-33 43t-28 33q14 5 25 11t23 20q10 -17 27.5 -44.5l37.5 -56.5l39 -55t31 -40l-55 -80.5t-70 -114.5zM137 49q-11 12 -23.5 19.5t-26.5 12.5q42 53 69.5 94l45.5 70q-12 19 -28.5 42
l-33.5 46l-32.5 43t-27.5 33q14 5 24.5 11t22.5 20q10 -17 27.5 -44.5l37.5 -56.5l39 -55t31 -40l-55 -80.5t-70 -114.5z" />
    <glyph glyph-name="ellipsis" unicode="&#x2026;" horiz-adv-x="1000" 
d="M439 46q0 26 17.5 44t43.5 18t44 -18t18 -44q0 -25 -18 -43t-44 -18t-43.5 18t-17.5 43zM772 46q0 26 17.5 44t43.5 18t44 -18t18 -44q0 -25 -18 -43t-44 -18t-43.5 18t-17.5 43zM106 46q0 26 17.5 44t43.5 18t44 -18t18 -44q0 -25 -18 -43t-44 -18t-43.5 18t-17.5 43z
" />
    <glyph glyph-name="perthousand" unicode="&#x2030;" horiz-adv-x="1000" 
d="M509 714l10.5 -2t10.5 -1t10.5 1t12.5 2l-401 -756q-3 1 -8 2t-12 1q-8 0 -13 -1l-10 -2zM822 11q27 0 42 16.5t22.5 39.5t9 46.5t1.5 38.5q0 22 -2.5 45.5t-9.5 42.5t-20.5 31.5t-35.5 12.5q-29 0 -45 -18.5t-23.5 -43t-9 -48t-1.5 -33.5q0 -13 1.5 -35t8.5 -43
t21.5 -36.5t40.5 -15.5zM679 137q0 42 11.5 74t32 53.5t47.5 32.5t58 11q66 0 103 -42t37 -110q0 -35 -10 -65.5t-29 -53.5t-46.5 -36.5t-63.5 -13.5q-35 0 -61 12t-43.5 33t-26.5 48t-9 57zM490 11q27 0 41.5 16.5t22 39.5t9 46.5t1.5 38.5q0 22 -2.5 45.5t-9.5 42.5
t-20 31.5t-35 12.5q-29 0 -45 -18.5t-23.5 -43t-9 -48t-1.5 -33.5q0 -13 1.5 -35t8.5 -43t21.5 -36.5t40.5 -15.5zM347 137q0 42 11.5 74t32 53.5t47.5 32.5t58 11q65 0 102 -42t37 -110q0 -35 -10 -65.5t-29 -53.5t-46.5 -36.5t-63.5 -13.5q-34 0 -60 12t-43.5 33t-26.5 48
t-9 57zM175 403q27 0 41.5 16.5t22 39t9 46.5t1.5 39q0 22 -2 45.5t-9 43t-20.5 32t-35.5 12.5q-29 0 -45 -18.5t-23.5 -43t-9 -48t-1.5 -33.5q0 -13 1.5 -35t8.5 -43.5t21.5 -37t40.5 -15.5zM32 529q0 43 11.5 75.5t32 54t47.5 32t58 10.5q64 0 101.5 -42t37.5 -111
q0 -35 -10 -65.5t-29 -53.5t-47 -36.5t-63 -13.5q-34 0 -60 12t-43.5 33t-26.5 48t-9 57z" />
    <glyph glyph-name="questiondown" unicode="&#xbf;" horiz-adv-x="444" 
d="M359 -123q1 -10 2 -16t2 -11t3 -11l5 -15q-17 -14 -36 -22t-36 -11.5t-30 -4t-18 -0.5q-41 0 -71 11.5t-50 30.5t-30 44t-10 52q0 28 8 51.5t20 42t25.5 33t25.5 25.5q31 29 49.5 49t28.5 34.5t13 26t3 23.5q0 25 -13.5 39.5t-35.5 14.5q-11 0 -18 -2.5t-15 -7.5l-6 4
q5 11 6.5 18.5t2.5 14.5q20 5 36 5q33 0 55.5 -11t36.5 -27.5t20 -36.5t6 -38q0 -22 -7 -41.5t-18.5 -37t-26.5 -34l-31 -32.5q-42 -42 -60.5 -69t-18.5 -60q0 -35 22 -58t61 -23q61 0 91 52zM242 356q-26 0 -45 18.5t-19 44.5q0 27 18.5 45.5t45.5 18.5q26 0 44.5 -18.5
t18.5 -44.5q0 -27 -18.5 -45.5t-44.5 -18.5z" />
    <glyph glyph-name="grave" unicode="`" horiz-adv-x="278" 
d="M177 549l-167 104q-12 8 -15 16t-3 14q0 14 10 24.5t24 10.5q6 0 10 -1t9 -5t12.5 -11l19.5 -19l135 -133h-35z" />
    <glyph glyph-name="acute" unicode="&#xb4;" horiz-adv-x="278" 
d="M66 549l134 133l19.5 19t12.5 11t9.5 5t10.5 1q14 0 24 -10.5t10 -24.5q0 -18 -19 -30l-166 -104h-35z" />
    <glyph glyph-name="circumflex" unicode="&#x2c6;" horiz-adv-x="278" 
d="M111 716h56l122 -167h-33l-117 105l-117 -105h-34z" />
    <glyph glyph-name="tilde" unicode="&#x2dc;" horiz-adv-x="278" 
d="M-24 574q4 23 14 41t24 31t31 19.5t35 6.5q8 0 14 -1t14.5 -4t21 -8.5l33.5 -15.5q23 -11 32 -14t22 -3q24 0 36.5 16.5t19.5 33.5h29q-3 -12 -10 -29.5t-19.5 -33.5t-31.5 -27.5t-44 -11.5q-13 0 -26.5 3t-30.5 11l-35 17q-14 7 -24.5 11t-22.5 4q-3 0 -10.5 -1
t-16 -5.5t-16.5 -14t-12 -25.5h-27z" />
    <glyph glyph-name="macron" unicode="&#xaf;" horiz-adv-x="278" 
d="M6 640h266v-50h-266v50z" />
    <glyph glyph-name="macron" unicode="&#x2c9;" horiz-adv-x="278" 
d="M6 640h266v-50h-266v50z" />
    <glyph glyph-name="breve" unicode="&#x2d8;" horiz-adv-x="278" 
d="M27 704q8 -50 38.5 -74.5t74.5 -24.5q34 0 55 12t32.5 28.5t16 33t6.5 25.5h28q-5 -70 -40 -112.5t-103 -42.5q-17 0 -40 5.5t-44.5 22t-36 47t-14.5 80.5h27z" />
    <glyph glyph-name="dotaccent" unicode="&#x2d9;" horiz-adv-x="278" 
d="M90 624q0 20 14.5 34.5t34.5 14.5t34 -14t14 -35q0 -20 -14 -34t-34 -14q-21 0 -35 14t-14 34z" />
    <glyph glyph-name="dieresis" unicode="&#xa8;" horiz-adv-x="278" 
d="M-6 615q0 19 13.5 32.5t32.5 13.5q20 0 33.5 -13.5t13.5 -32.5q0 -20 -13.5 -33.5t-33.5 -13.5q-19 0 -32.5 13.5t-13.5 33.5zM190 615q0 19 13.5 32.5t32.5 13.5q20 0 33.5 -13.5t13.5 -32.5q0 -20 -13.5 -33.5t-33.5 -13.5q-19 0 -32.5 13.5t-13.5 33.5z" />
    <glyph glyph-name="ring" unicode="&#x2da;" horiz-adv-x="278" 
d="M139 559q27 0 45.5 19t18.5 46q0 26 -18.5 45t-46.5 19q-27 0 -45.5 -19t-18.5 -45q0 -27 18.5 -46t46.5 -19zM139 532q-19 0 -36 7t-29.5 19.5t-19.5 29.5t-7 36t7 35.5t19.5 29t29.5 19.5t36 7q38 0 64.5 -26.5t26.5 -64.5q0 -19 -7 -36t-19.5 -29.5t-29 -19.5
t-35.5 -7z" />
    <glyph glyph-name="cedilla" unicode="&#xb8;" horiz-adv-x="278" 
d="M61 -174q13 -5 27.5 -8.5t33.5 -3.5q29 0 43.5 12t14.5 30q0 15 -10.5 27.5t-36.5 12.5q-11 0 -17 -2t-11 -4l-16 6l44 99h34l-30 -67q5 2 14 4t22 2q27 0 51.5 -17.5t24.5 -52.5q0 -26 -12.5 -42.5t-30.5 -25.5t-38 -12.5t-34 -3.5q-11 0 -31.5 2.5t-55.5 13.5z" />
    <glyph glyph-name="hungarumlaut" unicode="&#x2dd;" horiz-adv-x="278" 
d="M167 543l97 147q5 9 14.5 17.5t23.5 8.5t22.5 -9t8.5 -21q0 -18 -23 -38l-119 -105h-24zM49 543l97 147q6 10 15 18t23 8t22.5 -9t8.5 -21q0 -9 -5 -18t-18 -20l-119 -105h-24z" />
    <glyph glyph-name="ogonek" unicode="&#x2db;" horiz-adv-x="278" 
d="M227 -1q-45 -32 -69 -57.5t-24 -52.5q0 -20 16 -36.5t44 -16.5q20 0 36 8.5t27 18.5l16 -21q-10 -9 -22.5 -18.5t-26.5 -17.5t-31 -13.5t-36 -5.5q-38 0 -61 22t-23 54q0 24 11.5 44t29 37t37 30.5l36.5 24.5h40z" />
    <glyph glyph-name="caron" unicode="&#x2c7;" horiz-adv-x="278" 
d="M167 549h-56l-123 167h34l117 -105l117 105h33z" />
    <glyph glyph-name="emdash" unicode="&#x2014;" horiz-adv-x="1000" 
d="M130 247h740v-60h-740v60z" />
    <glyph glyph-name="AE" unicode="&#xc6;" horiz-adv-x="889" 
d="M267 298q22 -1 41 -1.5t41.5 -0.5h51h70.5q0 12 0.5 29t0.5 35t0.5 35t0.5 29v35t-0.5 40.5l-1 40.5t-1.5 36q-1 13 -2 21t-5 8t-7 -4t-5 -7zM296 249h-22.5t-36.5 -2q-54 -78 -86 -143t-49 -109l-20 4t-30 2t-30 -1.5t-22 -4.5l20.5 29.5l31 44l31 44t19.5 28.5
l64.5 99.5l72.5 113.5l72.5 113.5l64.5 100.5q18 27 29.5 46l20 32.5t13.5 23t10 17.5q21 -2 39 -3t40 -1.5t51.5 -1t72.5 -0.5q27 0 54.5 0.5t52 1.5t43.5 2t30 2q-2 -7 -3 -13.5t-1 -18.5q0 -13 1 -20t3 -15q-55 8 -110 10.5t-109 2.5q-11 0 -22.5 -0.5t-20.5 -0.5
q-2 -33 -3 -66.5t-1 -82.5q0 -25 1 -49t1 -49q27 -3 57 -3q45 0 90 3t91 8q-2 -8 -3 -15t-1 -19t1 -19t3 -15q-21 3 -48 5.5t-58.5 4t-65 1.5t-66.5 -1q0 -36 -1 -71.5t-1 -71.5q0 -71 6 -143q36 0 102 1.5t164 10.5q-2 -8 -3 -14.5t-1 -17.5q0 -12 1 -19t3 -15
q-48 5 -112.5 5.5t-121.5 0.5q-29 0 -65 -1t-74 -5l2.5 56t2 68l1 69.5t0.5 60.5h-175z" />
    <glyph glyph-name="ordfeminine" unicode="&#xaa;" horiz-adv-x="325" 
d="M210 549q-40 -6 -63.5 -13.5t-35.5 -16.5t-15.5 -19t-3.5 -22q0 -13 5.5 -22t13 -14t16.5 -7.5t17 -2.5q26 0 46 16t20 41v60zM48 616l3 43q15 11 40.5 24t69.5 13q19 0 43 -5t44 -22q11 -10 19 -25t8 -42q0 -7 -0.5 -22.5l-1 -32.5t-1 -32t-0.5 -21q0 -37 2.5 -51.5
t19.5 -14.5q11 0 16 3l1 -21q-11 -5 -22 -9t-26 -4q-17 0 -30.5 9t-19.5 27q-14 -15 -36.5 -27t-63.5 -12q-25 0 -42.5 7.5t-28 19.5t-15 26t-4.5 26q0 25 9.5 40t24.5 24.5t34.5 14.5t39.5 9l57 12q14 3 19 9t5 17q0 28 -20 45t-48 17q-20 0 -33.5 -5t-21.5 -12.5
t-12.5 -15t-6.5 -12.5h-22z" />
    <glyph glyph-name="Oslash" unicode="&#xd8;" horiz-adv-x="889" 
d="M178 337q0 -44 5.5 -76.5t13.5 -56.5t17 -40.5t16 -26.5l196 220.5l199 229.5q-38 32 -84 49t-97 17q-56 0 -105.5 -21.5t-84.5 -59.5q-25 -27 -40 -59t-23 -64t-10.5 -61t-2.5 -51zM712 343q0 35 -5.5 71.5t-17.5 72.5q-8 21 -17 37l-17 29l-77.5 -86l-64 -71.5
l-57 -64.5l-58 -65l-65 -73.5l-78.5 -89.5q8 -9 22.5 -22t37.5 -26t54.5 -22t74.5 -9q66 0 116 25t84 68t51 101.5t17 124.5zM671 639l21 26l18 21.5l19.5 23l25.5 30.5q5 -7 8.5 -11t7.5 -7.5t9 -7l14 -9.5l-27.5 -29l-19 -20l-17 -18.5l-21.5 -24.5q15 -14 35 -35
t38.5 -52.5t31 -75.5t12.5 -102q0 -79 -27 -146t-77 -116.5t-121.5 -77.5t-160.5 -28q-62 0 -109.5 12.5t-76.5 26.5q-16 8 -26.5 14.5t-21.5 14.5l-28.5 -33l-22 -25l-21 -24.5l-25.5 -30.5q-8 13 -14.5 19t-20.5 14l27.5 29.5l20.5 21.5l21.5 22l29.5 32q-23 22 -43 48
t-34.5 57.5t-23 70.5t-8.5 87q0 87 29 154.5t80.5 113t121 69t150.5 23.5q60 0 117.5 -13.5t108.5 -43.5z" />
    <glyph glyph-name="OE" unicode="&#x152;" horiz-adv-x="1000" 
d="M173 339q0 -52 11.5 -107.5t38 -101.5t70 -75.5t107.5 -29.5q70 0 116 28.5t73 74.5t38 104t11 117q0 57 -11.5 111.5t-38.5 97t-71.5 68t-110.5 25.5q-59 0 -103 -26t-73 -69.5t-43 -100t-14 -116.5zM62 337q0 92 28 159.5t74.5 112t108 66t127.5 21.5q76 0 134 -26.5
t104 -83.5v32.5t-0.5 24.5l-1 21t-1.5 22q48 -4 95.5 -5t95.5 -1q37 0 73 1t74 5q-2 -10 -3 -17.5t-1 -18.5t1 -17.5t3 -13.5q-52 9 -110 10.5t-130 1.5q0 -29 -0.5 -87t-0.5 -159h49.5t56.5 1t58 3t53 5q-2 -8 -3 -15.5t-1 -16.5q0 -14 4 -33q-50 5 -107.5 5.5t-109.5 0.5
v-84.5v-73t0.5 -66t1.5 -61.5q9 0 34.5 -0.5t59.5 0.5t73.5 3t78.5 8q-4 -15 -4 -38q1 -17 4 -28q-18 2 -34.5 3t-35.5 2t-42 1h-53q-48 0 -89.5 -0.5t-89.5 -5.5q2 20 2 49.5v56.5q-45 -65 -109.5 -93t-141.5 -28q-66 0 -125 22.5t-103.5 67.5t-70.5 112t-26 155z" />
    <glyph glyph-name="ordmasculine" unicode="&#xba;" horiz-adv-x="397" 
d="M101 544q0 -21 5 -43t16.5 -40t30 -29.5t45.5 -11.5q26 0 44.5 11.5t30.5 29.5t17.5 40t5.5 43q0 22 -5 44t-16.5 40t-30 29t-45.5 11q-28 0 -46.5 -10.5t-30 -28t-16.5 -40t-5 -45.5zM368 548q0 -39 -13 -68t-36 -48.5t-54 -29.5t-67 -10t-66.5 10t-53.5 28.5t-36 46.5
t-13 64q0 39 13 68t35.5 48.5t54 29t67.5 9.5q35 0 65.5 -9.5t53.5 -28t36.5 -46t13.5 -64.5z" />
    <glyph glyph-name="ae" unicode="&#xe6;" horiz-adv-x="833" 
d="M344 244q-6 -1 -22.5 -4l-35 -6.5t-35 -7t-23.5 -5.5q-15 -5 -30 -11.5t-26 -17.5t-18 -27t-7 -40q0 -25 8 -42t21 -27t29 -14t31 -4q27 0 47.5 11t34.5 28q9 12 14.5 23.5t7.5 24.5t3 28t1 34v57zM683 280q0 21 -3 49.5t-15 55t-35.5 44.5t-64.5 18q-34 0 -59 -14
t-41.5 -37.5t-24.5 -53.5t-8 -62h251zM432 238q-2 -56 12 -95.5t37 -64.5t53 -36.5t60 -11.5q35 0 62.5 10t47 24t31.5 27.5t18 21.5l10 -3q-2 -8 -3 -13.5t-2 -12t-1.5 -15.5t-0.5 -24q-27 -20 -53 -32.5t-50 -19t-45 -8.5t-37 -2q-63 0 -117.5 26t-83.5 84
q-6 -11 -18 -29.5t-32.5 -36.5t-51.5 -31t-74 -13q-70 0 -108 37t-38 97q0 42 16 67.5t41.5 40.5t58 23t65.5 14q23 4 37 7t22.5 4.5t13 2.5t9.5 3q14 5 21.5 8.5l13.5 6.5q1 14 -0.5 39.5t-16.5 52.5q-9 16 -21 25.5t-25.5 15t-26.5 7.5t-23 2q-25 0 -48.5 -8t-40.5 -22
t-24 -26.5t-12 -23.5l-24 2q1 10 2.5 29t1.5 39l19.5 15.5t35 21t51 18t67.5 7.5q33 0 56 -6t39.5 -15.5t28 -21t20.5 -22.5q6 6 18 17t31.5 21.5t47.5 18.5t66 8q58 0 99 -18t66.5 -51t37 -79t11.5 -102h-350z" />
    <glyph glyph-name="dotlessi" unicode="&#x131;" horiz-adv-x="278" 
d="M96 249q0 85 -2.5 138t-5.5 92q11 -3 21.5 -4.5t27.5 -1.5t29 1.5t23 4.5l-2 -41.5t-2 -49.5t-1.5 -70t-0.5 -102v-31.5t1 -37l2.5 -58t3.5 -94.5q-10 3 -19.5 4.5t-29.5 1.5q-21 0 -31 -1.5t-21 -4.5q1 28 2.5 60.5t2.5 65.5t1.5 66t0.5 62z" />
    <glyph glyph-name="oslash" unicode="&#xf8;" horiz-adv-x="611" 
d="M150 235q0 -57 9 -86.5t16 -44.5l64 78l55 68.5l55.5 69l64.5 81.5q-6 7 -15 15t-21.5 15t-29.5 11.5t-40 4.5q-40 0 -67 -13.5t-44.5 -34t-27 -45.5t-14 -48.5t-5 -43t-0.5 -27.5zM462 234q0 36 -6 71t-23 67q-9 -12 -16.5 -21l-19 -22.5l-29 -34.5l-46.5 -56l-27.5 -34
l-29 -36l-33.5 -42l-40 -51q4 -6 12 -15t21.5 -17.5t32.5 -15t45 -6.5q37 0 67 15.5t50 44t31 67.5t11 86zM564 240q0 -61 -20.5 -109t-55.5 -81.5t-82.5 -51t-102.5 -17.5q-41 0 -79.5 10t-73.5 30l-23 -28.5l-16.5 -21.5l-16 -21l-21.5 -28q-6 10 -11.5 14t-17.5 9
l30.5 36.5l19.5 23.5l14 17.5l15 18.5q-15 15 -28.5 32t-24 39.5t-16.5 51.5t-6 68q0 82 29 132.5t70 77.5t85.5 36t75.5 9q25 0 64 -6t82 -31l20 25l15.5 20l16 21t20.5 28q7 -8 13 -12.5t17 -10.5l-14 -16l-13.5 -16l-18.5 -22.5l-29 -35.5q9 -8 23 -22t27.5 -36.5t23 -55
t9.5 -77.5z" />
    <glyph glyph-name="oe" unicode="&#x153;" horiz-adv-x="945" 
d="M797 280q0 14 -1 34.5t-9 47.5q-8 29 -22.5 45.5t-30 25t-30.5 11t-24 2.5q-36 0 -61 -14.5t-41 -38t-24 -53t-10 -60.5h253zM297 21q24 0 51.5 10.5t50.5 36t38.5 66.5t15.5 103q0 27 -5 63t-21 68.5t-46 55.5t-79 23q-38 0 -64 -13.5t-43 -34.5t-26 -46t-13.5 -48.5
t-5 -42t-0.5 -25.5q0 -65 14.5 -106.5t36.5 -66t48 -34t48 -9.5zM877 106q-3 -15 -4.5 -25t-3.5 -33q-31 -32 -78.5 -49t-106.5 -17q-72 0 -114.5 24t-73.5 66q-20 -26 -44 -43.5t-50.5 -28t-54 -15t-53.5 -4.5q-56 0 -101 18t-77.5 50t-50 77.5t-17.5 101.5q0 53 15 100
t46.5 82.5t79.5 56t114 20.5q60 0 109 -20t88 -63q36 45 78.5 63.5t96.5 18.5q62 0 104.5 -17t69 -49t38 -78t11.5 -104h-355q0 -51 12.5 -90.5t35 -65.5t52.5 -39.5t66 -13.5q34 0 60 9t45.5 22t32.5 27t21 24z" />
    <glyph glyph-name="germandbls" unicode="&#xdf;" horiz-adv-x="611" 
d="M278 87q4 -9 12.5 -19t20.5 -18.5t28 -14.5t36 -6q30 0 50 10t32 24.5t17 31.5t5 32q0 27 -12.5 49.5t-30 39.5t-36.5 29.5t-33 20.5q-26 14 -49 36.5t-32 40.5q-5 9 -5.5 19.5t-0.5 12.5q0 11 2.5 20t9.5 19.5t20 25l33 37.5q23 25 40.5 54.5t17.5 68.5q0 49 -27.5 74.5
t-70.5 25.5q-29 0 -53 -12.5t-38 -35.5q-8 -14 -16 -40.5t-8 -63.5v-69t-0.5 -95.5t-0.5 -98.5v-78q0 -61 1.5 -118.5t4.5 -93.5q-11 3 -20.5 4.5t-28.5 1.5q-20 0 -32 -2l-24 -4q3 26 4 47.5t2 52.5t1 79.5v129.5v103q0 60 0.5 100t5 68t14 48.5t26.5 41.5q29 36 72.5 54.5
t95.5 18.5q34 0 63.5 -9t51 -25t34 -39.5t12.5 -51.5q0 -23 -6 -41t-15 -32.5t-19.5 -25.5l-19.5 -20q-11 -11 -24.5 -26l-23.5 -27q-4 -6 -6 -11t-2 -12q0 -11 7.5 -21.5t17 -19.5t20 -15.5l16.5 -10.5l52.5 -34.5t44.5 -37.5t30.5 -45.5t11.5 -58.5q0 -35 -16.5 -69.5
t-45 -61.5t-66 -44t-80.5 -17q-38 0 -62 9.5t-37 16.5q6 14 10.5 29t8.5 50z" />
    <glyph glyph-name="degree" unicode="&#xb0;" horiz-adv-x="407" 
d="M203 620q-19 0 -36 -7.5t-30 -20t-20.5 -30t-7.5 -36.5q0 -20 7.5 -37.5t20 -30t29.5 -20t37 -7.5t37.5 7.5t30 20.5t20 30t7.5 37q0 19 -7.5 36.5t-20 30t-30 20t-37.5 7.5zM203 677q31 0 59 -12t48.5 -32.5t32.5 -48t12 -58.5t-12 -58.5t-32.5 -48.5t-48.5 -33t-59 -12
t-58.5 12t-48 32.5t-32.5 48t-12 59.5q0 31 12 59t32.5 48t48 32t58.5 12z" />
    <glyph glyph-name="oacute" unicode="&#xf3;" horiz-adv-x="611" 
d="M233 549l134 133l19.5 19t12.5 11t9.5 5t10.5 1q14 0 24 -10.5t10 -24.5q0 -18 -19 -30l-166 -104h-35zM308 447q-40 0 -67 -13.5t-44.5 -34.5t-27 -46t-14 -48.5t-5 -42t-0.5 -25.5q0 -105 42 -160.5t111 -55.5q36 0 65.5 15t50 43t32 67.5t11.5 89.5q0 29 -6 65.5
t-22.5 69t-46.5 54.5t-79 22zM302 487q71 0 121 -21.5t81.5 -56.5t45.5 -79t14 -90q0 -60 -19.5 -107.5t-54.5 -81.5t-83 -52t-105 -18q-40 0 -84.5 10.5t-82 39t-62.5 77.5t-25 126q0 58 18.5 105t52 80t80.5 50.5t103 17.5z" />
    <glyph glyph-name="Odieresis" unicode="&#xd6;" horiz-adv-x="889" 
d="M300 793q0 19 13.5 32.5t32.5 13.5q20 0 33.5 -13.5t13.5 -32.5q0 -20 -13.5 -33.5t-33.5 -13.5q-19 0 -32.5 13.5t-13.5 33.5zM496 793q0 19 13.5 32.5t32.5 13.5q20 0 33.5 -13.5t13.5 -32.5q0 -20 -13.5 -33.5t-33.5 -13.5q-19 0 -32.5 13.5t-13.5 33.5zM178 337
q0 -73 19.5 -131.5t54.5 -99t83.5 -62t106.5 -21.5q59 0 108.5 21t85.5 62t56 100.5t20 136.5q0 19 -2 43.5t-7 50t-13.5 51t-21.5 47.5q-20 34 -48 57t-58.5 36.5t-61 19t-55.5 5.5q-50 0 -98 -17.5t-85.5 -55.5t-60.5 -98t-23 -145zM450 696q78 0 146.5 -22.5t119.5 -67
t80.5 -109.5t29.5 -149q0 -78 -27 -145.5t-77 -117t-121.5 -77.5t-160.5 -28q-82 0 -151 24.5t-119 70.5t-78 112t-28 149q0 80 26 146t75.5 113.5t121 74t163.5 26.5z" />
    <glyph glyph-name="odieresis" unicode="&#xf6;" horiz-adv-x="611" 
d="M161 615q0 19 13.5 32.5t32.5 13.5q20 0 33.5 -13.5t13.5 -32.5q0 -20 -13.5 -33.5t-33.5 -13.5q-19 0 -32.5 13.5t-13.5 33.5zM357 615q0 19 13.5 32.5t32.5 13.5q20 0 33.5 -13.5t13.5 -32.5q0 -20 -13.5 -33.5t-33.5 -13.5q-19 0 -32.5 13.5t-13.5 33.5zM308 447
q-40 0 -67 -13.5t-44.5 -34.5t-27 -46t-14 -48.5t-5 -42t-0.5 -25.5q0 -105 42 -160.5t111 -55.5q36 0 65.5 15t50 43t32 67.5t11.5 89.5q0 29 -6 65.5t-22.5 69t-46.5 54.5t-79 22zM302 487q71 0 121 -21.5t81.5 -56.5t45.5 -79t14 -90q0 -60 -19.5 -107.5t-54.5 -81.5
t-83 -52t-105 -18q-40 0 -84.5 10.5t-82 39t-62.5 77.5t-25 126q0 58 18.5 105t52 80t80.5 50.5t103 17.5z" />
    <glyph glyph-name="Eacute" unicode="&#xc9;" 
d="M187 727l134 133l19.5 19t12.5 11t9.5 5t10.5 1q14 0 24 -10.5t10 -24.5q0 -18 -19 -30l-166 -104h-35zM188 385q60 -1 118.5 -0.5t117.5 7.5q-2 -8 -3 -15.5t-1 -18.5q0 -8 1.5 -15.5t2.5 -15.5q-39 5 -81 7.5t-74 2.5q-20 0 -41 -0.5t-40 -1.5q-1 -32 -1.5 -65.5
t-0.5 -65.5q0 -20 0.5 -42.5l1 -44.5t1 -40t0.5 -28q48 0 111 1.5t152 10.5q-2 -8 -3 -15.5t-1 -18.5t1 -17.5t3 -14.5q-35 5 -69.5 5.5t-69.5 0.5q-58 0 -116 -2l-116 -4l4 57t3.5 68.5t2.5 95t1 137.5q0 37 -0.5 80t-1.5 87t-2.5 86.5t-3.5 79.5q53 -5 104.5 -5.5
t104.5 -0.5q38 0 76 1t76 5q-2 -8 -3 -16.5t-1 -18.5q0 -11 1 -17.5t3 -14.5q-14 3 -28.5 5t-32.5 4t-41.5 3t-56.5 1h-46t-51 -2q-1 -15 -1.5 -26.5t-0.5 -23.5v-27.5v-37.5v-40v-29.5t0.5 -27t0.5 -33.5z" />
    <glyph glyph-name="ucircumflex" unicode="&#xfb;" horiz-adv-x="611" 
d="M278 716h56l122 -167h-33l-117 105l-117 -105h-34zM290 48q47 0 75.5 23t40.5 47q14 27 16 56t2 50q0 24 -0.5 59.5l-1 72.5t-2 71l-2.5 56q11 -2 24.5 -4t29.5 -2q17 0 27.5 2l21.5 4q-3 -45 -6.5 -110.5t-3.5 -143.5q0 -56 0.5 -92t1 -61t1.5 -43.5t3 -37.5
q-13 2 -23.5 4t-25.5 2q-14 0 -23.5 -1.5t-23.5 -4.5q1 11 1.5 19t1 17.5t1 23t1.5 35.5q-19 -34 -41.5 -54.5t-45 -31.5t-43 -14.5t-34.5 -3.5q-59 0 -93 19.5t-51.5 47t-22.5 57t-5 50.5q0 11 1 41t1.5 64t1.5 64.5t1 43.5q0 28 -1 61t-3 49q11 -3 22.5 -4.5t28.5 -1.5
q16 0 27.5 1.5t22.5 4.5q-5 -55 -7 -112.5t-2 -98.5q0 -44 1.5 -84.5t11.5 -71.5t32 -49.5t62 -18.5z" />
    <glyph glyph-name="logicalnot" unicode="&#xac;" horiz-adv-x="593" 
d="M46 370h502v-251h-62v191h-440v60z" />
    <glyph glyph-name="Ecircumflex" unicode="&#xca;" 
d="M237 894h56l122 -167h-33l-117 105l-117 -105h-34zM188 385q60 -1 118.5 -0.5t117.5 7.5q-2 -8 -3 -15.5t-1 -18.5q0 -8 1.5 -15.5t2.5 -15.5q-39 5 -81 7.5t-74 2.5q-20 0 -41 -0.5t-40 -1.5q-1 -32 -1.5 -65.5t-0.5 -65.5q0 -20 0.5 -42.5l1 -44.5t1 -40t0.5 -28
q48 0 111 1.5t152 10.5q-2 -8 -3 -15.5t-1 -18.5t1 -17.5t3 -14.5q-35 5 -69.5 5.5t-69.5 0.5q-58 0 -116 -2l-116 -4l4 57t3.5 68.5t2.5 95t1 137.5q0 37 -0.5 80t-1.5 87t-2.5 86.5t-3.5 79.5q53 -5 104.5 -5.5t104.5 -0.5q38 0 76 1t76 5q-2 -8 -3 -16.5t-1 -18.5
q0 -11 1 -17.5t3 -14.5q-14 3 -28.5 5t-32.5 4t-41.5 3t-56.5 1h-46t-51 -2q-1 -15 -1.5 -26.5t-0.5 -23.5v-27.5v-37.5v-40v-29.5t0.5 -27t0.5 -33.5z" />
    <glyph glyph-name="Otilde" unicode="&#xd5;" horiz-adv-x="889" 
d="M282 752q4 23 14 41t24 31t31 19.5t35 6.5q8 0 14 -1t14.5 -4t21 -8.5l33.5 -15.5q23 -11 32 -14t22 -3q24 0 36.5 16.5t19.5 33.5h29q-3 -12 -10 -29.5t-19.5 -33.5t-31.5 -27.5t-44 -11.5q-13 0 -26.5 3t-30.5 11l-35 17q-14 7 -24.5 11t-22.5 4q-3 0 -10.5 -1
t-16 -5.5t-16.5 -14t-12 -25.5h-27zM178 337q0 -73 19.5 -131.5t54.5 -99t83.5 -62t106.5 -21.5q59 0 108.5 21t85.5 62t56 100.5t20 136.5q0 19 -2 43.5t-7 50t-13.5 51t-21.5 47.5q-20 34 -48 57t-58.5 36.5t-61 19t-55.5 5.5q-50 0 -98 -17.5t-85.5 -55.5t-60.5 -98
t-23 -145zM450 696q78 0 146.5 -22.5t119.5 -67t80.5 -109.5t29.5 -149q0 -78 -27 -145.5t-77 -117t-121.5 -77.5t-160.5 -28q-82 0 -151 24.5t-119 70.5t-78 112t-28 149q0 80 26 146t75.5 113.5t121 74t163.5 26.5z" />
    <glyph glyph-name="uacute" unicode="&#xfa;" horiz-adv-x="611" 
d="M233 549l134 133l19.5 19t12.5 11t9.5 5t10.5 1q14 0 24 -10.5t10 -24.5q0 -18 -19 -30l-166 -104h-35zM290 48q47 0 75.5 23t40.5 47q14 27 16 56t2 50q0 24 -0.5 59.5l-1 72.5t-2 71l-2.5 56q11 -2 24.5 -4t29.5 -2q17 0 27.5 2l21.5 4q-3 -45 -6.5 -110.5t-3.5 -143.5
q0 -56 0.5 -92t1 -61t1.5 -43.5t3 -37.5q-13 2 -23.5 4t-25.5 2q-14 0 -23.5 -1.5t-23.5 -4.5q1 11 1.5 19t1 17.5t1 23t1.5 35.5q-19 -34 -41.5 -54.5t-45 -31.5t-43 -14.5t-34.5 -3.5q-59 0 -93 19.5t-51.5 47t-22.5 57t-5 50.5q0 11 1 41t1.5 64t1.5 64.5t1 43.5
q0 28 -1 61t-3 49q11 -3 22.5 -4.5t28.5 -1.5q16 0 27.5 1.5t22.5 4.5q-5 -55 -7 -112.5t-2 -98.5q0 -44 1.5 -84.5t11.5 -71.5t32 -49.5t62 -18.5z" />
    <glyph glyph-name="eacute" unicode="&#xe9;" horiz-adv-x="556" 
d="M215 549l134 133l19.5 19t12.5 11t9.5 5t10.5 1q14 0 24 -10.5t10 -24.5q0 -18 -19 -30l-166 -104h-35zM408 280q0 12 -2 39.5t-13 55.5t-35.5 49.5t-69.5 21.5q-66 0 -98.5 -45.5t-39.5 -120.5h258zM149 238q0 -11 0.5 -26t3 -32.5t8 -36.5t15.5 -36q17 -28 37 -44
t39.5 -23.5t36 -9t27.5 -1.5q37 0 64 9.5t46.5 23t31 27t17.5 21.5l12 -3q-5 -21 -5.5 -34.5t-1.5 -25.5q-33 -32 -79 -48.5t-107 -16.5q-57 0 -102.5 17.5t-77 50t-48.5 78.5t-17 104q0 52 14.5 98t44 80.5t74.5 55t107 20.5q56 0 94 -14.5t62.5 -37.5t37 -51.5t18.5 -56
t6.5 -51.5t0.5 -37h-359z" />
    <glyph glyph-name="iacute" unicode="&#xed;" horiz-adv-x="278" 
d="M66 549l134 133l19.5 19t12.5 11t9.5 5t10.5 1q14 0 24 -10.5t10 -24.5q0 -18 -19 -30l-166 -104h-35zM96 249q0 85 -2.5 138t-5.5 92q11 -3 21.5 -4.5t27.5 -1.5t29 1.5t23 4.5l-2 -41.5t-2 -49.5t-1.5 -70t-0.5 -102v-31.5t1 -37l2.5 -58t3.5 -94.5q-10 3 -19.5 4.5
t-29.5 1.5q-21 0 -31 -1.5t-21 -4.5q1 28 2.5 60.5t2.5 65.5t1.5 66t0.5 62z" />
    <glyph glyph-name="Egrave" unicode="&#xc8;" 
d="M308 727l-167 104q-12 8 -15 16t-3 14q0 14 10 24.5t24 10.5q6 0 10 -1t9 -5t12.5 -11l19.5 -19l135 -133h-35zM188 385q60 -1 118.5 -0.5t117.5 7.5q-2 -8 -3 -15.5t-1 -18.5q0 -8 1.5 -15.5t2.5 -15.5q-39 5 -81 7.5t-74 2.5q-20 0 -41 -0.5t-40 -1.5
q-1 -32 -1.5 -65.5t-0.5 -65.5q0 -20 0.5 -42.5l1 -44.5t1 -40t0.5 -28q48 0 111 1.5t152 10.5q-2 -8 -3 -15.5t-1 -18.5t1 -17.5t3 -14.5q-35 5 -69.5 5.5t-69.5 0.5q-58 0 -116 -2l-116 -4l4 57t3.5 68.5t2.5 95t1 137.5q0 37 -0.5 80t-1.5 87t-2.5 86.5t-3.5 79.5
q53 -5 104.5 -5.5t104.5 -0.5q38 0 76 1t76 5q-2 -8 -3 -16.5t-1 -18.5q0 -11 1 -17.5t3 -14.5q-14 3 -28.5 5t-32.5 4t-41.5 3t-56.5 1h-46t-51 -2q-1 -15 -1.5 -26.5t-0.5 -23.5v-27.5v-37.5v-40v-29.5t0.5 -27t0.5 -33.5z" />
    <glyph glyph-name="icircumflex" unicode="&#xee;" horiz-adv-x="278" 
d="M111 716h56l122 -167h-33l-117 105l-117 -105h-34zM96 249q0 85 -2.5 138t-5.5 92q11 -3 21.5 -4.5t27.5 -1.5t29 1.5t23 4.5l-2 -41.5t-2 -49.5t-1.5 -70t-0.5 -102v-31.5t1 -37l2.5 -58t3.5 -94.5q-10 3 -19.5 4.5t-29.5 1.5q-21 0 -31 -1.5t-21 -4.5q1 28 2.5 60.5
t2.5 65.5t1.5 66t0.5 62z" />
    <glyph glyph-name="mu" unicode="&#xb5;" horiz-adv-x="611" 
d="M290 48q47 0 75.5 23t40.5 47q14 27 16 56t2 50q0 24 -0.5 59.5l-1 72.5t-2 71l-2.5 56q11 -2 24.5 -4t29.5 -2q17 0 27.5 2l21.5 4q-3 -45 -6.5 -110.5t-3.5 -143.5q0 -56 0.5 -92t1 -61t1.5 -43.5t3 -37.5q-13 2 -23.5 4t-25.5 2q-14 0 -23.5 -1.5t-23.5 -4.5
q1 11 1.5 19t1 17.5t1 23t1.5 35.5q-19 -34 -41.5 -54.5t-45 -31.5t-43 -14.5t-34.5 -3.5q-47 0 -75 20v-85.5t0.5 -70.5t1.5 -60.5t3 -56.5q-11 3 -22.5 4.5t-29.5 1.5q-19 0 -30.5 -1.5t-23.5 -4.5q6 93 8 185.5t2 184.5v93.5t-0.5 99t-1.5 97.5t-3 90q11 -3 22.5 -4.5
t28.5 -1.5q16 0 27.5 1.5t22.5 4.5q-5 -55 -7 -112.5t-2 -98.5q0 -44 1.5 -84.5t11.5 -71.5t32 -49.5t62 -18.5z" />
    <glyph glyph-name="mu" unicode="&#x3bc;" horiz-adv-x="611" 
d="M290 48q47 0 75.5 23t40.5 47q14 27 16 56t2 50q0 24 -0.5 59.5l-1 72.5t-2 71l-2.5 56q11 -2 24.5 -4t29.5 -2q17 0 27.5 2l21.5 4q-3 -45 -6.5 -110.5t-3.5 -143.5q0 -56 0.5 -92t1 -61t1.5 -43.5t3 -37.5q-13 2 -23.5 4t-25.5 2q-14 0 -23.5 -1.5t-23.5 -4.5
q1 11 1.5 19t1 17.5t1 23t1.5 35.5q-19 -34 -41.5 -54.5t-45 -31.5t-43 -14.5t-34.5 -3.5q-47 0 -75 20v-85.5t0.5 -70.5t1.5 -60.5t3 -56.5q-11 3 -22.5 4.5t-29.5 1.5q-19 0 -30.5 -1.5t-23.5 -4.5q6 93 8 185.5t2 184.5v93.5t-0.5 99t-1.5 97.5t-3 90q11 -3 22.5 -4.5
t28.5 -1.5q16 0 27.5 1.5t22.5 4.5q-5 -55 -7 -112.5t-2 -98.5q0 -44 1.5 -84.5t11.5 -71.5t32 -49.5t62 -18.5z" />
    <glyph glyph-name="Aring" unicode="&#xc5;" horiz-adv-x="667" 
d="M334 739q27 0 45.5 19t18.5 46q0 26 -18.5 45t-46.5 19q-27 0 -45.5 -19t-18.5 -45q0 -27 18.5 -46t46.5 -19zM334 712q-19 0 -36 7t-29.5 19.5t-19.5 29.5t-7 36t7 35.5t19.5 29t29.5 19.5t36 7q38 0 64.5 -26.5t26.5 -64.5q0 -19 -7 -36t-19.5 -29.5t-29 -19.5
t-35.5 -7zM303 555l-105 -248h213zM178 257l-41.5 -100.5t-51.5 -161.5l-18 4t-23 2t-24 -2l-20 -4l48.5 106.5l55 121l57.5 127.5l55.5 126.5l50 117.5l41.5 101l11.5 -2t13.5 -1q7 0 11.5 0.5t10.5 2.5q19 -53 48.5 -124.5l63 -149l67 -153.5l60 -136.5l44 -98t17.5 -38.5
l-26.5 4t-32.5 2q-20 0 -35 -2l-29 -4q-26 91 -54 155.5l-47 106.5h-253z" />
    <glyph glyph-name="Ydieresis" unicode="&#x178;" horiz-adv-x="611" 
d="M171 793q0 19 13.5 32.5t32.5 13.5q20 0 33.5 -13.5t13.5 -32.5q0 -20 -13.5 -33.5t-33.5 -13.5q-19 0 -32.5 13.5t-13.5 33.5zM367 793q0 19 13.5 32.5t32.5 13.5q20 0 33.5 -13.5t13.5 -32.5q0 -20 -13.5 -33.5t-33.5 -13.5q-19 0 -32.5 13.5t-13.5 33.5zM363 227
q0 -14 0.5 -41t1 -59.5t2 -67t3.5 -64.5q-15 5 -27.5 5.5t-22.5 0.5q-23 0 -36 -1t-24 -5q3 31 4.5 57t2 56t0 69.5t-0.5 96.5l-72 121l-52.5 88.5l-39 64.5l-30 49.5l-26 43.5l-28.5 46q20 -5 38 -5.5t26 -0.5q26 0 44 2t26 4q31 -78 66.5 -143.5l67.5 -121.5l16 -27.5
l15 -24.5t12 -17.5t8 -6.5q2 0 7.5 8l12 18t12 20t8.5 15q39 68 74 137.5t65 142.5q11 -4 23 -5t24 -1q14 0 23.5 1.5t21.5 4.5l-27.5 -40.5l-39 -60.5l-44.5 -71.5l-45 -73.5l-40 -67l-29 -51q-7 -12 -11 -22t-8 -19q-1 -11 -1 -25v-30z" />
    <glyph glyph-name="trademark" unicode="&#x2122;" horiz-adv-x="933" 
d="M585 339q-8 18 -21 43.5l-29.5 56l-36 64.5l-38.5 68q-4 -29 -7 -60t-5.5 -62t-4 -59t-1.5 -51q-6 2 -12 3t-12 1q-8 0 -16 -1.5t-16 -2.5q2 9 6 30.5l9.5 51t11 64.5t10.5 70.5l9.5 69t7.5 60.5q9 -1 14 -1t13 1q4 -10 15 -30.5l24.5 -45.5l29 -52.5l29.5 -52.5
l25.5 -44.5t17.5 -28.5l54.5 97l40 72l27.5 50.5t17 34.5q8 -1 12 -1t14 1q4 -38 10 -84.5l11.5 -91.5t11 -85t9.5 -64q1 -6 2 -10.5t3 -10.5q-8 1 -18 2.5t-18 1.5q-11 0 -19.5 -1t-16.5 -3q0 20 -3 57t-6.5 75l-6.5 68t-4 36l-66.5 -119.5t-56.5 -116.5q-7 2 -9.5 2
t-10.5 -2zM200 644q-30 0 -48 -0.5t-29 -1t-18.5 -2t-16.5 -2.5q2 10 2.5 14t0.5 9q0 4 -0.5 8.5t-2.5 15.5q14 -2 32 -3t37 -1.5t37.5 -0.5h33.5q36 0 75 0.5t67 4.5q-2 -8 -2.5 -13.5t-0.5 -10.5q0 -6 0.5 -11t2.5 -13q-8 1 -16 2.5t-20 2.5t-29.5 1.5t-42.5 0.5
q0 -20 -0.5 -59.5t-0.5 -84.5t1 -88.5t4 -72.5q-6 1 -17.5 2.5t-21.5 1.5t-17.5 -1t-14.5 -3q3 37 4 81.5t1.5 87t0 79t-0.5 57.5z" />
    <glyph glyph-name="registered" unicode="&#xae;" horiz-adv-x="383" 
d="M337 516q0 30 -10.5 57t-30 47.5t-46.5 32t-59 11.5q-31 0 -57.5 -11.5t-46 -31.5t-30.5 -47t-11 -58q0 -32 11 -59t30.5 -46.5t46 -31t57.5 -11.5t58 11t46.5 31t30.5 47t11 59zM12 516q0 38 14 71t38.5 57t57 38t69.5 14q38 0 71 -14t57 -38.5t38 -57.5t14 -70
q0 -38 -14 -71t-38.5 -57t-57 -38t-69.5 -14q-38 0 -70.5 14t-57 38t-38.5 57t-14 71zM230 571q0 13 -7 20.5t-17.5 11t-23.5 4t-25 0.5q-1 -20 -1 -38.5v-36.5q8 0 20.5 0.5t24.5 4.5t20.5 11.5t8.5 22.5zM289 419q-5 1 -10 1.5t-11 0.5q-5 0 -11 -0.5t-14 -1.5
q-26 37 -46 59.5l-34 39.5h-7q0 -23 0.5 -44.5t2.5 -54.5q-7 1 -11 1.5t-12 0.5t-11 -0.5t-8 -1.5q2 17 2.5 39t0.5 66q0 38 -0.5 59.5t-1.5 38.5q11 -1 21.5 -1h27.5q19 0 37 -0.5t32.5 -5t23.5 -14.5t9 -28q0 -16 -7.5 -25.5t-18 -15t-22 -7.5t-18.5 -3q5 -7 17.5 -21.5
l26 -30.5l26 -29.5t17.5 -18.5z" />
    <glyph glyph-name="ocircumflex" unicode="&#xf4;" horiz-adv-x="611" 
d="M278 716h56l122 -167h-33l-117 105l-117 -105h-34zM308 447q-40 0 -67 -13.5t-44.5 -34.5t-27 -46t-14 -48.5t-5 -42t-0.5 -25.5q0 -105 42 -160.5t111 -55.5q36 0 65.5 15t50 43t32 67.5t11.5 89.5q0 29 -6 65.5t-22.5 69t-46.5 54.5t-79 22zM302 487q71 0 121 -21.5
t81.5 -56.5t45.5 -79t14 -90q0 -60 -19.5 -107.5t-54.5 -81.5t-83 -52t-105 -18q-40 0 -84.5 10.5t-82 39t-62.5 77.5t-25 126q0 58 18.5 105t52 80t80.5 50.5t103 17.5z" />
    <glyph glyph-name="Agrave" unicode="&#xc0;" horiz-adv-x="667" 
d="M372 727l-167 104q-12 8 -15 16t-3 14q0 14 10 24.5t24 10.5q6 0 10 -1t9 -5t12.5 -11l19.5 -19l135 -133h-35zM303 555l-105 -248h213zM178 257l-41.5 -100.5t-51.5 -161.5l-18 4t-23 2t-24 -2l-20 -4l48.5 106.5l55 121l57.5 127.5l55.5 126.5l50 117.5l41.5 101
l11.5 -2t13.5 -1q7 0 11.5 0.5t10.5 2.5q19 -53 48.5 -124.5l63 -149l67 -153.5l60 -136.5l44 -98t17.5 -38.5l-26.5 4t-32.5 2q-20 0 -35 -2l-29 -4q-26 91 -54 155.5l-47 106.5h-253z" />
    <glyph glyph-name="Ugrave" unicode="&#xd9;" horiz-adv-x="778" 
d="M427 727l-167 104q-12 8 -15 16t-3 14q0 14 10 24.5t24 10.5q6 0 10 -1t9 -5t12.5 -11l19.5 -19l135 -133h-35zM98 273v115.5t-0.5 84t-0.5 61.5t-1 49.5t-2.5 48l-3.5 55.5q16 -2 30.5 -4t28.5 -2q17 0 31 2l27 4q-3 -49 -5 -105.5t-3 -106.5t-1 -86v-44q0 -47 1 -84.5
t5.5 -67t13.5 -52.5t24 -41q24 -30 68 -47.5t92 -17.5q10 0 37.5 3t59 17.5t60 43.5t40.5 82q6 25 9.5 57t5 62t2 54t0.5 33q0 14 -1 53.5t-2.5 86t-4 91.5t-6.5 69l20 -4t27 -2t26 2l18 4q-10 -69 -13.5 -155t-3.5 -198q0 -36 -2 -74t-9 -73.5t-21.5 -68t-39.5 -58.5
q-32 -33 -83 -56t-137 -23q-29 0 -62 4t-65.5 15.5t-63 31t-53.5 50.5q-14 19 -22 39t-12.5 43t-6 50t-1.5 59z" />
    <glyph glyph-name="Edieresis" unicode="&#xcb;" 
d="M120 793q0 19 13.5 32.5t32.5 13.5q20 0 33.5 -13.5t13.5 -32.5q0 -20 -13.5 -33.5t-33.5 -13.5q-19 0 -32.5 13.5t-13.5 33.5zM316 793q0 19 13.5 32.5t32.5 13.5q20 0 33.5 -13.5t13.5 -32.5q0 -20 -13.5 -33.5t-33.5 -13.5q-19 0 -32.5 13.5t-13.5 33.5zM188 385
q60 -1 118.5 -0.5t117.5 7.5q-2 -8 -3 -15.5t-1 -18.5q0 -8 1.5 -15.5t2.5 -15.5q-39 5 -81 7.5t-74 2.5q-20 0 -41 -0.5t-40 -1.5q-1 -32 -1.5 -65.5t-0.5 -65.5q0 -20 0.5 -42.5l1 -44.5t1 -40t0.5 -28q48 0 111 1.5t152 10.5q-2 -8 -3 -15.5t-1 -18.5t1 -17.5t3 -14.5
q-35 5 -69.5 5.5t-69.5 0.5q-58 0 -116 -2l-116 -4l4 57t3.5 68.5t2.5 95t1 137.5q0 37 -0.5 80t-1.5 87t-2.5 86.5t-3.5 79.5q53 -5 104.5 -5.5t104.5 -0.5q38 0 76 1t76 5q-2 -8 -3 -16.5t-1 -18.5q0 -11 1 -17.5t3 -14.5q-14 3 -28.5 5t-32.5 4t-41.5 3t-56.5 1h-46
t-51 -2q-1 -15 -1.5 -26.5t-0.5 -23.5v-27.5v-37.5v-40v-29.5t0.5 -27t0.5 -33.5z" />
    <glyph glyph-name="Uacute" unicode="&#xda;" horiz-adv-x="778" 
d="M321 727l134 133l19.5 19t12.5 11t9.5 5t10.5 1q14 0 24 -10.5t10 -24.5q0 -18 -19 -30l-166 -104h-35zM98 273v115.5t-0.5 84t-0.5 61.5t-1 49.5t-2.5 48l-3.5 55.5q16 -2 30.5 -4t28.5 -2q17 0 31 2l27 4q-3 -49 -5 -105.5t-3 -106.5t-1 -86v-44q0 -47 1 -84.5t5.5 -67
t13.5 -52.5t24 -41q24 -30 68 -47.5t92 -17.5q10 0 37.5 3t59 17.5t60 43.5t40.5 82q6 25 9.5 57t5 62t2 54t0.5 33q0 14 -1 53.5t-2.5 86t-4 91.5t-6.5 69l20 -4t27 -2t26 2l18 4q-10 -69 -13.5 -155t-3.5 -198q0 -36 -2 -74t-9 -73.5t-21.5 -68t-39.5 -58.5
q-32 -33 -83 -56t-137 -23q-29 0 -62 4t-65.5 15.5t-63 31t-53.5 50.5q-14 19 -22 39t-12.5 43t-6 50t-1.5 59z" />
    <glyph glyph-name="otilde" unicode="&#xf5;" horiz-adv-x="611" 
d="M143 574q4 23 14 41t24 31t31 19.5t35 6.5q8 0 14 -1t14.5 -4t21 -8.5l33.5 -15.5q23 -11 32 -14t22 -3q24 0 36.5 16.5t19.5 33.5h29q-3 -12 -10 -29.5t-19.5 -33.5t-31.5 -27.5t-44 -11.5q-13 0 -26.5 3t-30.5 11l-35 17q-14 7 -24.5 11t-22.5 4q-3 0 -10.5 -1
t-16 -5.5t-16.5 -14t-12 -25.5h-27zM308 447q-40 0 -67 -13.5t-44.5 -34.5t-27 -46t-14 -48.5t-5 -42t-0.5 -25.5q0 -105 42 -160.5t111 -55.5q36 0 65.5 15t50 43t32 67.5t11.5 89.5q0 29 -6 65.5t-22.5 69t-46.5 54.5t-79 22zM302 487q71 0 121 -21.5t81.5 -56.5t45.5 -79
t14 -90q0 -60 -19.5 -107.5t-54.5 -81.5t-83 -52t-105 -18q-40 0 -84.5 10.5t-82 39t-62.5 77.5t-25 126q0 58 18.5 105t52 80t80.5 50.5t103 17.5z" />
    <glyph glyph-name="ntilde" unicode="&#xf1;" horiz-adv-x="611" 
d="M143 574q4 23 14 41t24 31t31 19.5t35 6.5q8 0 14 -1t14.5 -4t21 -8.5l33.5 -15.5q23 -11 32 -14t22 -3q24 0 36.5 16.5t19.5 33.5h29q-3 -12 -10 -29.5t-19.5 -33.5t-31.5 -27.5t-44 -11.5q-13 0 -26.5 3t-30.5 11l-35 17q-14 7 -24.5 11t-22.5 4q-3 0 -10.5 -1
t-16 -5.5t-16.5 -14t-12 -25.5h-27zM91 270q0 50 -1.5 105t-3.5 108q14 -2 25 -4t25 -2t25 2t24 4q0 -6 -1 -19.5t-1.5 -28.5t-1.5 -28.5t-1 -18.5q10 18 25 35.5t37 31.5t50 22.5t64 8.5q61 0 96 -19t51.5 -46.5t20.5 -57.5t4 -51q0 -3 -0.5 -17t-0.5 -35t-1 -45.5
t-1 -47.5t-0.5 -41.5t-0.5 -26.5v-22t0.5 -31.5t1 -30.5t1.5 -20q-11 3 -21.5 4.5t-29.5 1.5q-20 0 -31 -1.5t-22 -4.5q3 40 5 79.5t3 71.5t1 54.5v29.5q0 37 -2.5 72.5t-14 62.5t-34.5 43.5t-65 16.5q-82 0 -119 -69q-7 -13 -10.5 -38.5t-5 -54.5t-2 -56.5t-0.5 -45.5
q0 -59 3 -98.5l5 -67.5q-11 2 -23.5 4t-29.5 2t-29.5 -2t-23.5 -4q2 23 3.5 47.5t3 56.5t2.5 73.5t1 97.5z" />
    <glyph glyph-name="ydieresis" unicode="&#xff;" 
d="M110 615q0 19 13.5 32.5t32.5 13.5q20 0 33.5 -13.5t13.5 -32.5q0 -20 -13.5 -33.5t-33.5 -13.5q-19 0 -32.5 13.5t-13.5 33.5zM306 615q0 19 13.5 32.5t32.5 13.5q20 0 33.5 -13.5t13.5 -32.5q0 -20 -13.5 -33.5t-33.5 -13.5q-19 0 -32.5 13.5t-13.5 33.5zM178 81
l-25 60l-28.5 67.5l-28.5 67.5l-25 60l-18 44.5t-14 32.5l-14.5 31l-18.5 39q13 -3 26.5 -4.5t36.5 -1.5q17 0 28 0.5t26 5.5q3 -10 16 -46l31 -84l38.5 -102l39.5 -100q5 -13 10.5 -23.5t10.5 -10.5q4 0 20 34.5t37 87.5t44 118t41 126q8 -2 19 -4t25 -2t24 2t16 4
q-7 -11 -13 -22t-17 -33.5l-28.5 -61l-47.5 -103.5l-16.5 -36l-17.5 -36l-101 -226.5t-83 -226.5q-5 2 -14.5 4t-20.5 2q-18 0 -45 -6l65 122t62 122z" />
    <glyph glyph-name="Aacute" unicode="&#xc1;" horiz-adv-x="667" 
d="M261 727l134 133l19.5 19t12.5 11t9.5 5t10.5 1q14 0 24 -10.5t10 -24.5q0 -18 -19 -30l-166 -104h-35zM303 555l-105 -248h213zM178 257l-41.5 -100.5t-51.5 -161.5l-18 4t-23 2t-24 -2l-20 -4l48.5 106.5l55 121l57.5 127.5l55.5 126.5l50 117.5l41.5 101l11.5 -2
t13.5 -1q7 0 11.5 0.5t10.5 2.5q19 -53 48.5 -124.5l63 -149l67 -153.5l60 -136.5l44 -98t17.5 -38.5l-26.5 4t-32.5 2q-20 0 -35 -2l-29 -4q-26 91 -54 155.5l-47 106.5h-253z" />
    <glyph glyph-name="acircumflex" unicode="&#xe2;" 
d="M222 716h56l122 -167h-33l-117 105l-117 -105h-34zM327 245q-65 -10 -102.5 -22.5t-57.5 -27.5t-25.5 -33t-5.5 -38q0 -24 8.5 -40.5t21 -26t27.5 -13.5t28 -4q19 0 38 7t34 20t24.5 30t9.5 38v110zM76 361l4 65l27 20t35 20t44.5 15t55.5 6q29 0 66.5 -8.5t67.5 -36.5
q17 -17 29 -41.5t12 -70.5q0 -11 -0.5 -37t-1.5 -54.5t-1.5 -53.5t-0.5 -35q0 -33 0.5 -55.5t4 -36t11 -19.5t21.5 -6q9 0 15 1.5t10 3.5l1 -28q-17 -8 -34 -15t-38 -7q-25 0 -46.5 15.5t-29.5 49.5q-12 -12 -26 -24.5t-32 -22.5t-41 -16.5t-52 -6.5q-39 0 -65 13t-42.5 33
t-23.5 43t-7 44q0 40 14.5 64.5t38 40t53.5 23.5t60 15l87 19q21 5 29 16t8 32q0 51 -31.5 80t-80.5 29q-31 0 -51.5 -8.5t-33.5 -20.5t-19.5 -24.5t-9.5 -20.5h-27z" />
    <glyph glyph-name="aring" unicode="&#xe5;" 
d="M250 559q27 0 45.5 19t18.5 46q0 26 -18.5 45t-46.5 19q-27 0 -45.5 -19t-18.5 -45q0 -27 18.5 -46t46.5 -19zM250 532q-19 0 -36 7t-29.5 19.5t-19.5 29.5t-7 36t7 35.5t19.5 29t29.5 19.5t36 7q38 0 64.5 -26.5t26.5 -64.5q0 -19 -7 -36t-19.5 -29.5t-29 -19.5
t-35.5 -7zM327 245q-65 -10 -102.5 -22.5t-57.5 -27.5t-25.5 -33t-5.5 -38q0 -24 8.5 -40.5t21 -26t27.5 -13.5t28 -4q19 0 38 7t34 20t24.5 30t9.5 38v110zM76 361l4 65l27 20t35 20t44.5 15t55.5 6q29 0 66.5 -8.5t67.5 -36.5q17 -17 29 -41.5t12 -70.5q0 -11 -0.5 -37
t-1.5 -54.5t-1.5 -53.5t-0.5 -35q0 -33 0.5 -55.5t4 -36t11 -19.5t21.5 -6q9 0 15 1.5t10 3.5l1 -28q-17 -8 -34 -15t-38 -7q-25 0 -46.5 15.5t-29.5 49.5q-12 -12 -26 -24.5t-32 -22.5t-41 -16.5t-52 -6.5q-39 0 -65 13t-42.5 33t-23.5 43t-7 44q0 40 14.5 64.5t38 40
t53.5 23.5t60 15l87 19q21 5 29 16t8 32q0 51 -31.5 80t-80.5 29q-31 0 -51.5 -8.5t-33.5 -20.5t-19.5 -24.5t-9.5 -20.5h-27z" />
    <glyph glyph-name="Ograve" unicode="&#xd2;" horiz-adv-x="889" 
d="M483 727l-167 104q-12 8 -15 16t-3 14q0 14 10 24.5t24 10.5q6 0 10 -1t9 -5t12.5 -11l19.5 -19l135 -133h-35zM178 337q0 -73 19.5 -131.5t54.5 -99t83.5 -62t106.5 -21.5q59 0 108.5 21t85.5 62t56 100.5t20 136.5q0 19 -2 43.5t-7 50t-13.5 51t-21.5 47.5
q-20 34 -48 57t-58.5 36.5t-61 19t-55.5 5.5q-50 0 -98 -17.5t-85.5 -55.5t-60.5 -98t-23 -145zM450 696q78 0 146.5 -22.5t119.5 -67t80.5 -109.5t29.5 -149q0 -78 -27 -145.5t-77 -117t-121.5 -77.5t-160.5 -28q-82 0 -151 24.5t-119 70.5t-78 112t-28 149q0 80 26 146
t75.5 113.5t121 74t163.5 26.5z" />
    <glyph glyph-name="ccedilla" unicode="&#xe7;" 
d="M470 79q-7 -20 -8.5 -33.5t-2.5 -24.5q-23 -15 -61.5 -27.5t-91.5 -11.5l-24 -54q5 2 14 4t22 2q27 0 51.5 -17.5t24.5 -52.5q0 -26 -12.5 -42.5t-30.5 -25.5t-38 -12.5t-35 -3.5q-11 0 -31.5 2.5t-55.5 13.5l14 30q14 -5 28 -8.5t33 -3.5q29 0 44 12t15 30
q0 15 -11 27.5t-37 12.5q-10 0 -16 -2l-12 -4l-16 6l39 88q-57 6 -99.5 27.5t-70.5 55.5t-42 76.5t-14 90.5q0 57 18 104t52 80.5t83.5 51.5t111.5 18q44 0 85 -9t79 -31q-11 -29 -15.5 -50t-6.5 -35h-12q-11 28 -26 44.5t-31.5 25t-33.5 11t-30 2.5q-84 0 -127 -55
t-43 -149q0 -69 19 -111t46.5 -65t58 -30.5t52.5 -7.5q31 0 69.5 12.5t65.5 41.5z" />
    <glyph glyph-name="divide" unicode="&#xf7;" horiz-adv-x="593" 
d="M296 478q22 0 37.5 -15t15.5 -38t-16 -38t-37 -15q-22 0 -37.5 15.5t-15.5 37.5t15 37.5t38 15.5zM296 118q21 0 37 -15t16 -38t-15.5 -38t-37.5 -15q-23 0 -38 15.5t-15 37.5q0 23 15.5 38t37.5 15zM45 275h502v-60h-502v60z" />
    <glyph glyph-name="Ntilde" unicode="&#xd1;" horiz-adv-x="778" 
d="M231 752q4 23 14 41t24 31t31 19.5t35 6.5q8 0 14 -1t14.5 -4t21 -8.5l33.5 -15.5q23 -11 32 -14t22 -3q24 0 36.5 16.5t19.5 33.5h29q-3 -12 -10 -29.5t-19.5 -33.5t-31.5 -27.5t-44 -11.5q-13 0 -26.5 3t-30.5 11l-35 17q-14 7 -24.5 11t-22.5 4q-3 0 -10.5 -1
t-16 -5.5t-16.5 -14t-12 -25.5h-27zM149 449q1 -61 1.5 -107t2 -83.5t2.5 -69t2.5 -61.5t3.5 -62t4 -71l-18.5 4t-23.5 2t-22 -2t-17 -4q2 19 4 57.5t4 85t3.5 95.5t1.5 88q0 15 -0.5 51l-1 75.5t-1 74.5t-0.5 49v120q5 -1 8.5 -1.5t7.5 -0.5q5 0 9.5 0.5t11.5 1.5l33 -39
l20 -23.5l23 -25.5l29.5 -31.5l39.5 -41.5l86.5 -91.5l64.5 -68l50.5 -53l45 -46.5l46.5 -48l56 -57v37v163.5t-1.5 121.5t-4 101.5t-7.5 101.5q8 -2 17.5 -4t21.5 -2t22.5 2l20.5 4q-13 -109 -15 -216.5t-2 -216.5v-65t0.5 -72.5l1 -70.5t2.5 -61q-6 1 -10 1.5t-9 0.5
q-4 0 -7.5 -0.5t-8.5 -1.5l-24.5 28.5l-38.5 44l-47.5 52.5l-51 54.5l-49 50.5l-40.5 40l-25.5 24.5l-25.5 25.5l-195 203v-63z" />
    <glyph glyph-name="ugrave" unicode="&#xf9;" horiz-adv-x="611" 
d="M344 549l-167 104q-12 8 -15 16t-3 14q0 14 10 24.5t24 10.5q6 0 10 -1t9 -5t12.5 -11l19.5 -19l135 -133h-35zM290 48q47 0 75.5 23t40.5 47q14 27 16 56t2 50q0 24 -0.5 59.5l-1 72.5t-2 71l-2.5 56q11 -2 24.5 -4t29.5 -2q17 0 27.5 2l21.5 4q-3 -45 -6.5 -110.5
t-3.5 -143.5q0 -56 0.5 -92t1 -61t1.5 -43.5t3 -37.5q-13 2 -23.5 4t-25.5 2q-14 0 -23.5 -1.5t-23.5 -4.5q1 11 1.5 19t1 17.5t1 23t1.5 35.5q-19 -34 -41.5 -54.5t-45 -31.5t-43 -14.5t-34.5 -3.5q-59 0 -93 19.5t-51.5 47t-22.5 57t-5 50.5q0 11 1 41t1.5 64t1.5 64.5
t1 43.5q0 28 -1 61t-3 49q11 -3 22.5 -4.5t28.5 -1.5q16 0 27.5 1.5t22.5 4.5q-5 -55 -7 -112.5t-2 -98.5q0 -44 1.5 -84.5t11.5 -71.5t32 -49.5t62 -18.5z" />
    <glyph glyph-name="Ucircumflex" unicode="&#xdb;" horiz-adv-x="778" 
d="M376 894h56l122 -167h-33l-117 105l-117 -105h-34zM98 273v115.5t-0.5 84t-0.5 61.5t-1 49.5t-2.5 48l-3.5 55.5q16 -2 30.5 -4t28.5 -2q17 0 31 2l27 4q-3 -49 -5 -105.5t-3 -106.5t-1 -86v-44q0 -47 1 -84.5t5.5 -67t13.5 -52.5t24 -41q24 -30 68 -47.5t92 -17.5
q10 0 37.5 3t59 17.5t60 43.5t40.5 82q6 25 9.5 57t5 62t2 54t0.5 33q0 14 -1 53.5t-2.5 86t-4 91.5t-6.5 69l20 -4t27 -2t26 2l18 4q-10 -69 -13.5 -155t-3.5 -198q0 -36 -2 -74t-9 -73.5t-21.5 -68t-39.5 -58.5q-32 -33 -83 -56t-137 -23q-29 0 -62 4t-65.5 15.5t-63 31
t-53.5 50.5q-14 19 -22 39t-12.5 43t-6 50t-1.5 59z" />
    <glyph glyph-name="Atilde" unicode="&#xc3;" horiz-adv-x="667" 
d="M171 752q4 23 14 41t24 31t31 19.5t35 6.5q8 0 14 -1t14.5 -4t21 -8.5l33.5 -15.5q23 -11 32 -14t22 -3q24 0 36.5 16.5t19.5 33.5h29q-3 -12 -10 -29.5t-19.5 -33.5t-31.5 -27.5t-44 -11.5q-13 0 -26.5 3t-30.5 11l-35 17q-14 7 -24.5 11t-22.5 4q-3 0 -10.5 -1
t-16 -5.5t-16.5 -14t-12 -25.5h-27zM303 555l-105 -248h213zM178 257l-41.5 -100.5t-51.5 -161.5l-18 4t-23 2t-24 -2l-20 -4l48.5 106.5l55 121l57.5 127.5l55.5 126.5l50 117.5l41.5 101l11.5 -2t13.5 -1q7 0 11.5 0.5t10.5 2.5q19 -53 48.5 -124.5l63 -149l67 -153.5
l60 -136.5l44 -98t17.5 -38.5l-26.5 4t-32.5 2q-20 0 -35 -2l-29 -4q-26 91 -54 155.5l-47 106.5h-253z" />
    <glyph glyph-name="idieresis" unicode="&#xef;" horiz-adv-x="278" 
d="M-6 615q0 19 13.5 32.5t32.5 13.5q20 0 33.5 -13.5t13.5 -32.5q0 -20 -13.5 -33.5t-33.5 -13.5q-19 0 -32.5 13.5t-13.5 33.5zM190 615q0 19 13.5 32.5t32.5 13.5q20 0 33.5 -13.5t13.5 -32.5q0 -20 -13.5 -33.5t-33.5 -13.5q-19 0 -32.5 13.5t-13.5 33.5zM96 249
q0 85 -2.5 138t-5.5 92q11 -3 21.5 -4.5t27.5 -1.5t29 1.5t23 4.5l-2 -41.5t-2 -49.5t-1.5 -70t-0.5 -102v-31.5t1 -37l2.5 -58t3.5 -94.5q-10 3 -19.5 4.5t-29.5 1.5q-21 0 -31 -1.5t-21 -4.5q1 28 2.5 60.5t2.5 65.5t1.5 66t0.5 62z" />
    <glyph glyph-name="Acircumflex" unicode="&#xc2;" horiz-adv-x="667" 
d="M306 894h56l122 -167h-33l-117 105l-117 -105h-34zM303 555l-105 -248h213zM178 257l-41.5 -100.5t-51.5 -161.5l-18 4t-23 2t-24 -2l-20 -4l48.5 106.5l55 121l57.5 127.5l55.5 126.5l50 117.5l41.5 101l11.5 -2t13.5 -1q7 0 11.5 0.5t10.5 2.5q19 -53 48.5 -124.5
l63 -149l67 -153.5l60 -136.5l44 -98t17.5 -38.5l-26.5 4t-32.5 2q-20 0 -35 -2l-29 -4q-26 91 -54 155.5l-47 106.5h-253z" />
    <glyph glyph-name="Icircumflex" unicode="&#xce;" horiz-adv-x="333" 
d="M139 894h56l122 -167h-33l-117 105l-117 -105h-34zM118 351v62v48.5t-0.5 43t-1.5 46t-2 58t-3 78.5q12 -3 23.5 -4.5t31.5 -1.5q21 0 33 1.5t25 4.5q-5 -90 -6.5 -178.5t-1.5 -178.5q0 -68 0.5 -118t1.5 -89t2.5 -69.5t2.5 -58.5q-14 2 -29.5 4t-32.5 2t-29 -2l-24 -4
q3 41 4.5 74t3 71.5t2 87.5t0.5 123z" />
    <glyph glyph-name="Oacute" unicode="&#xd3;" horiz-adv-x="889" 
d="M372 727l134 133l19.5 19t12.5 11t9.5 5t10.5 1q14 0 24 -10.5t10 -24.5q0 -18 -19 -30l-166 -104h-35zM178 337q0 -73 19.5 -131.5t54.5 -99t83.5 -62t106.5 -21.5q59 0 108.5 21t85.5 62t56 100.5t20 136.5q0 19 -2 43.5t-7 50t-13.5 51t-21.5 47.5q-20 34 -48 57
t-58.5 36.5t-61 19t-55.5 5.5q-50 0 -98 -17.5t-85.5 -55.5t-60.5 -98t-23 -145zM450 696q78 0 146.5 -22.5t119.5 -67t80.5 -109.5t29.5 -149q0 -78 -27 -145.5t-77 -117t-121.5 -77.5t-160.5 -28q-82 0 -151 24.5t-119 70.5t-78 112t-28 149q0 80 26 146t75.5 113.5
t121 74t163.5 26.5z" />
    <glyph glyph-name="Adieresis" unicode="&#xc4;" horiz-adv-x="667" 
d="M189 793q0 19 13.5 32.5t32.5 13.5q20 0 33.5 -13.5t13.5 -32.5q0 -20 -13.5 -33.5t-33.5 -13.5q-19 0 -32.5 13.5t-13.5 33.5zM385 793q0 19 13.5 32.5t32.5 13.5q20 0 33.5 -13.5t13.5 -32.5q0 -20 -13.5 -33.5t-33.5 -13.5q-19 0 -32.5 13.5t-13.5 33.5zM303 555
l-105 -248h213zM178 257l-41.5 -100.5t-51.5 -161.5l-18 4t-23 2t-24 -2l-20 -4l48.5 106.5l55 121l57.5 127.5l55.5 126.5l50 117.5l41.5 101l11.5 -2t13.5 -1q7 0 11.5 0.5t10.5 2.5q19 -53 48.5 -124.5l63 -149l67 -153.5l60 -136.5l44 -98t17.5 -38.5l-26.5 4t-32.5 2
q-20 0 -35 -2l-29 -4q-26 91 -54 155.5l-47 106.5h-253z" />
    <glyph glyph-name="agrave" unicode="&#xe0;" 
d="M288 549l-167 104q-12 8 -15 16t-3 14q0 14 10 24.5t24 10.5q6 0 10 -1t9 -5t12.5 -11l19.5 -19l135 -133h-35zM327 245q-65 -10 -102.5 -22.5t-57.5 -27.5t-25.5 -33t-5.5 -38q0 -24 8.5 -40.5t21 -26t27.5 -13.5t28 -4q19 0 38 7t34 20t24.5 30t9.5 38v110zM76 361
l4 65l27 20t35 20t44.5 15t55.5 6q29 0 66.5 -8.5t67.5 -36.5q17 -17 29 -41.5t12 -70.5q0 -11 -0.5 -37t-1.5 -54.5t-1.5 -53.5t-0.5 -35q0 -33 0.5 -55.5t4 -36t11 -19.5t21.5 -6q9 0 15 1.5t10 3.5l1 -28q-17 -8 -34 -15t-38 -7q-25 0 -46.5 15.5t-29.5 49.5
q-12 -12 -26 -24.5t-32 -22.5t-41 -16.5t-52 -6.5q-39 0 -65 13t-42.5 33t-23.5 43t-7 44q0 40 14.5 64.5t38 40t53.5 23.5t60 15l87 19q21 5 29 16t8 32q0 51 -31.5 80t-80.5 29q-31 0 -51.5 -8.5t-33.5 -20.5t-19.5 -24.5t-9.5 -20.5h-27z" />
    <glyph glyph-name="ograve" unicode="&#xf2;" horiz-adv-x="611" 
d="M344 549l-167 104q-12 8 -15 16t-3 14q0 14 10 24.5t24 10.5q6 0 10 -1t9 -5t12.5 -11l19.5 -19l135 -133h-35zM308 447q-40 0 -67 -13.5t-44.5 -34.5t-27 -46t-14 -48.5t-5 -42t-0.5 -25.5q0 -105 42 -160.5t111 -55.5q36 0 65.5 15t50 43t32 67.5t11.5 89.5
q0 29 -6 65.5t-22.5 69t-46.5 54.5t-79 22zM302 487q71 0 121 -21.5t81.5 -56.5t45.5 -79t14 -90q0 -60 -19.5 -107.5t-54.5 -81.5t-83 -52t-105 -18q-40 0 -84.5 10.5t-82 39t-62.5 77.5t-25 126q0 58 18.5 105t52 80t80.5 50.5t103 17.5z" />
    <glyph glyph-name="plusminus" unicode="&#xb1;" horiz-adv-x="593" 
d="M45 50h502v-60h-502v60zM263 266h-218v60h218v174h66v-174h218v-60h-218v-173h-66v173z" />
    <glyph glyph-name="udieresis" unicode="&#xfc;" horiz-adv-x="611" 
d="M161 615q0 19 13.5 32.5t32.5 13.5q20 0 33.5 -13.5t13.5 -32.5q0 -20 -13.5 -33.5t-33.5 -13.5q-19 0 -32.5 13.5t-13.5 33.5zM357 615q0 19 13.5 32.5t32.5 13.5q20 0 33.5 -13.5t13.5 -32.5q0 -20 -13.5 -33.5t-33.5 -13.5q-19 0 -32.5 13.5t-13.5 33.5zM290 48
q47 0 75.5 23t40.5 47q14 27 16 56t2 50q0 24 -0.5 59.5l-1 72.5t-2 71l-2.5 56q11 -2 24.5 -4t29.5 -2q17 0 27.5 2l21.5 4q-3 -45 -6.5 -110.5t-3.5 -143.5q0 -56 0.5 -92t1 -61t1.5 -43.5t3 -37.5q-13 2 -23.5 4t-25.5 2q-14 0 -23.5 -1.5t-23.5 -4.5q1 11 1.5 19t1 17.5
t1 23t1.5 35.5q-19 -34 -41.5 -54.5t-45 -31.5t-43 -14.5t-34.5 -3.5q-59 0 -93 19.5t-51.5 47t-22.5 57t-5 50.5q0 11 1 41t1.5 64t1.5 64.5t1 43.5q0 28 -1 61t-3 49q11 -3 22.5 -4.5t28.5 -1.5q16 0 27.5 1.5t22.5 4.5q-5 -55 -7 -112.5t-2 -98.5q0 -44 1.5 -84.5
t11.5 -71.5t32 -49.5t62 -18.5z" />
    <glyph glyph-name="edieresis" unicode="&#xeb;" horiz-adv-x="556" 
d="M143 615q0 19 13.5 32.5t32.5 13.5q20 0 33.5 -13.5t13.5 -32.5q0 -20 -13.5 -33.5t-33.5 -13.5q-19 0 -32.5 13.5t-13.5 33.5zM339 615q0 19 13.5 32.5t32.5 13.5q20 0 33.5 -13.5t13.5 -32.5q0 -20 -13.5 -33.5t-33.5 -13.5q-19 0 -32.5 13.5t-13.5 33.5zM408 280
q0 12 -2 39.5t-13 55.5t-35.5 49.5t-69.5 21.5q-66 0 -98.5 -45.5t-39.5 -120.5h258zM149 238q0 -11 0.5 -26t3 -32.5t8 -36.5t15.5 -36q17 -28 37 -44t39.5 -23.5t36 -9t27.5 -1.5q37 0 64 9.5t46.5 23t31 27t17.5 21.5l12 -3q-5 -21 -5.5 -34.5t-1.5 -25.5
q-33 -32 -79 -48.5t-107 -16.5q-57 0 -102.5 17.5t-77 50t-48.5 78.5t-17 104q0 52 14.5 98t44 80.5t74.5 55t107 20.5q56 0 94 -14.5t62.5 -37.5t37 -51.5t18.5 -56t6.5 -51.5t0.5 -37h-359z" />
    <glyph glyph-name="aacute" unicode="&#xe1;" 
d="M177 549l134 133l19.5 19t12.5 11t9.5 5t10.5 1q14 0 24 -10.5t10 -24.5q0 -18 -19 -30l-166 -104h-35zM327 245q-65 -10 -102.5 -22.5t-57.5 -27.5t-25.5 -33t-5.5 -38q0 -24 8.5 -40.5t21 -26t27.5 -13.5t28 -4q19 0 38 7t34 20t24.5 30t9.5 38v110zM76 361l4 65l27 20
t35 20t44.5 15t55.5 6q29 0 66.5 -8.5t67.5 -36.5q17 -17 29 -41.5t12 -70.5q0 -11 -0.5 -37t-1.5 -54.5t-1.5 -53.5t-0.5 -35q0 -33 0.5 -55.5t4 -36t11 -19.5t21.5 -6q9 0 15 1.5t10 3.5l1 -28q-17 -8 -34 -15t-38 -7q-25 0 -46.5 15.5t-29.5 49.5q-12 -12 -26 -24.5
t-32 -22.5t-41 -16.5t-52 -6.5q-39 0 -65 13t-42.5 33t-23.5 43t-7 44q0 40 14.5 64.5t38 40t53.5 23.5t60 15l87 19q21 5 29 16t8 32q0 51 -31.5 80t-80.5 29q-31 0 -51.5 -8.5t-33.5 -20.5t-19.5 -24.5t-9.5 -20.5h-27z" />
    <glyph glyph-name="igrave" unicode="&#xec;" horiz-adv-x="278" 
d="M177 549l-167 104q-12 8 -15 16t-3 14q0 14 10 24.5t24 10.5q6 0 10 -1t9 -5t12.5 -11l19.5 -19l135 -133h-35zM96 249q0 85 -2.5 138t-5.5 92q11 -3 21.5 -4.5t27.5 -1.5t29 1.5t23 4.5l-2 -41.5t-2 -49.5t-1.5 -70t-0.5 -102v-31.5t1 -37l2.5 -58t3.5 -94.5
q-10 3 -19.5 4.5t-29.5 1.5q-21 0 -31 -1.5t-21 -4.5q1 28 2.5 60.5t2.5 65.5t1.5 66t0.5 62z" />
    <glyph glyph-name="Idieresis" unicode="&#xcf;" horiz-adv-x="333" 
d="M22 793q0 19 13.5 32.5t32.5 13.5q20 0 33.5 -13.5t13.5 -32.5q0 -20 -13.5 -33.5t-33.5 -13.5q-19 0 -32.5 13.5t-13.5 33.5zM218 793q0 19 13.5 32.5t32.5 13.5q20 0 33.5 -13.5t13.5 -32.5q0 -20 -13.5 -33.5t-33.5 -13.5q-19 0 -32.5 13.5t-13.5 33.5zM118 351v62
v48.5t-0.5 43t-1.5 46t-2 58t-3 78.5q12 -3 23.5 -4.5t31.5 -1.5q21 0 33 1.5t25 4.5q-5 -90 -6.5 -178.5t-1.5 -178.5q0 -68 0.5 -118t1.5 -89t2.5 -69.5t2.5 -58.5q-14 2 -29.5 4t-32.5 2t-29 -2l-24 -4q3 41 4.5 74t3 71.5t2 87.5t0.5 123z" />
    <glyph glyph-name="adieresis" unicode="&#xe4;" 
d="M105 615q0 19 13.5 32.5t32.5 13.5q20 0 33.5 -13.5t13.5 -32.5q0 -20 -13.5 -33.5t-33.5 -13.5q-19 0 -32.5 13.5t-13.5 33.5zM301 615q0 19 13.5 32.5t32.5 13.5q20 0 33.5 -13.5t13.5 -32.5q0 -20 -13.5 -33.5t-33.5 -13.5q-19 0 -32.5 13.5t-13.5 33.5zM327 245
q-65 -10 -102.5 -22.5t-57.5 -27.5t-25.5 -33t-5.5 -38q0 -24 8.5 -40.5t21 -26t27.5 -13.5t28 -4q19 0 38 7t34 20t24.5 30t9.5 38v110zM76 361l4 65l27 20t35 20t44.5 15t55.5 6q29 0 66.5 -8.5t67.5 -36.5q17 -17 29 -41.5t12 -70.5q0 -11 -0.5 -37t-1.5 -54.5
t-1.5 -53.5t-0.5 -35q0 -33 0.5 -55.5t4 -36t11 -19.5t21.5 -6q9 0 15 1.5t10 3.5l1 -28q-17 -8 -34 -15t-38 -7q-25 0 -46.5 15.5t-29.5 49.5q-12 -12 -26 -24.5t-32 -22.5t-41 -16.5t-52 -6.5q-39 0 -65 13t-42.5 33t-23.5 43t-7 44q0 40 14.5 64.5t38 40t53.5 23.5t60 15
l87 19q21 5 29 16t8 32q0 51 -31.5 80t-80.5 29q-31 0 -51.5 -8.5t-33.5 -20.5t-19.5 -24.5t-9.5 -20.5h-27z" />
    <glyph glyph-name="Iacute" unicode="&#xcd;" horiz-adv-x="333" 
d="M94 727l134 133l19.5 19t12.5 11t9.5 5t10.5 1q14 0 24 -10.5t10 -24.5q0 -18 -19 -30l-166 -104h-35zM118 351v62v48.5t-0.5 43t-1.5 46t-2 58t-3 78.5q12 -3 23.5 -4.5t31.5 -1.5q21 0 33 1.5t25 4.5q-5 -90 -6.5 -178.5t-1.5 -178.5q0 -68 0.5 -118t1.5 -89t2.5 -69.5
t2.5 -58.5q-14 2 -29.5 4t-32.5 2t-29 -2l-24 -4q3 41 4.5 74t3 71.5t2 87.5t0.5 123z" />
    <glyph glyph-name="copyright" unicode="&#xa9;" horiz-adv-x="778" 
d="M527 216q-2 -8 -3 -18.5t-2 -30.5q-22 -14 -43.5 -22t-39.5 -12t-31.5 -4.5t-19.5 -0.5q-47 0 -84 16t-62.5 44.5t-39 68t-13.5 85.5q0 43 12.5 81t38 67t64.5 46t93 17q48 0 80.5 -11.5t52.5 -20.5q-3 -10 -5.5 -16.5t-4 -13t-2 -13t-1.5 -16.5h-6q-11 25 -43 45t-74 20
q-66 0 -103.5 -50.5t-37.5 -134.5q0 -46 12 -80.5t32 -58t46.5 -35t55.5 -11.5q9 0 23.5 2t31 8t34 18t33.5 33zM389 657q-66 0 -123.5 -25t-100.5 -68t-68 -101t-25 -125q0 -66 25 -124t67.5 -101.5t100.5 -68.5t124 -25t124 25t101 68.5t67.5 101.5t24.5 124t-25 124.5
t-67.5 101.5t-100.5 68t-124 25zM389 696q74 0 139.5 -28t114.5 -76.5t77.5 -113.5t28.5 -140q0 -74 -28 -139t-77 -113.5t-114.5 -77t-140.5 -28.5t-140.5 28.5t-114.5 77t-77 113.5t-28 139q0 75 28.5 140t77.5 113.5t114.5 76.5t139.5 28z" />
    <glyph glyph-name="Igrave" unicode="&#xcc;" horiz-adv-x="333" 
d="M205 727l-167 104q-12 8 -15 16t-3 14q0 14 10 24.5t24 10.5q6 0 10 -1t9 -5t12.5 -11l19.5 -19l135 -133h-35zM118 351v62v48.5t-0.5 43t-1.5 46t-2 58t-3 78.5q12 -3 23.5 -4.5t31.5 -1.5q21 0 33 1.5t25 4.5q-5 -90 -6.5 -178.5t-1.5 -178.5q0 -68 0.5 -118t1.5 -89
t2.5 -69.5t2.5 -58.5q-14 2 -29.5 4t-32.5 2t-29 -2l-24 -4q3 41 4.5 74t3 71.5t2 87.5t0.5 123z" />
    <glyph glyph-name="Ccedilla" unicode="&#xc7;" horiz-adv-x="722" 
d="M402 -72q5 2 14 4t22 2q27 0 51.5 -17.5t24.5 -52.5q0 -26 -12.5 -42.5t-30.5 -25.5t-38 -12.5t-34 -3.5q-11 0 -32 2.5t-56 13.5l14 30q14 -5 28 -8.5t34 -3.5q29 0 43.5 12t14.5 30q0 15 -11 27.5t-37 12.5q-10 0 -16 -2t-11 -4l-17 6l39 88q-84 6 -147.5 36t-105.5 78
t-63 110.5t-21 132.5q0 72 23 136.5t70 112.5t119 76t171 28q45 0 83 -5.5t69 -13.5t54.5 -17.5l40.5 -16.5q-6 -15 -9.5 -26.5t-6 -22t-4.5 -22.5t-4 -29h-10q-10 21 -31 41t-49.5 35.5t-63.5 24.5t-73 9q-59 0 -107.5 -21t-83 -61t-53.5 -97.5t-19 -129.5
q0 -78 22.5 -136.5t60 -97t86.5 -58t102 -19.5q17 0 43.5 3t57.5 13.5t64 31t62 55.5l12 -5q-4 -17 -6.5 -35t-4.5 -46q-39 -24 -78.5 -37t-73 -19t-58 -7.5t-34.5 -1.5z" />
    <glyph glyph-name="egrave" unicode="&#xe8;" horiz-adv-x="556" 
d="M336 549l-167 104q-12 8 -15 16t-3 14q0 14 10 24.5t24 10.5q6 0 10 -1t9 -5t12.5 -11l19.5 -19l135 -133h-35zM408 280q0 12 -2 39.5t-13 55.5t-35.5 49.5t-69.5 21.5q-66 0 -98.5 -45.5t-39.5 -120.5h258zM149 238q0 -11 0.5 -26t3 -32.5t8 -36.5t15.5 -36
q17 -28 37 -44t39.5 -23.5t36 -9t27.5 -1.5q37 0 64 9.5t46.5 23t31 27t17.5 21.5l12 -3q-5 -21 -5.5 -34.5t-1.5 -25.5q-33 -32 -79 -48.5t-107 -16.5q-57 0 -102.5 17.5t-77 50t-48.5 78.5t-17 104q0 52 14.5 98t44 80.5t74.5 55t107 20.5q56 0 94 -14.5t62.5 -37.5
t37 -51.5t18.5 -56t6.5 -51.5t0.5 -37h-359z" />
    <glyph glyph-name="Ocircumflex" unicode="&#xd4;" horiz-adv-x="889" 
d="M417 894h56l122 -167h-33l-117 105l-117 -105h-34zM178 337q0 -73 19.5 -131.5t54.5 -99t83.5 -62t106.5 -21.5q59 0 108.5 21t85.5 62t56 100.5t20 136.5q0 19 -2 43.5t-7 50t-13.5 51t-21.5 47.5q-20 34 -48 57t-58.5 36.5t-61 19t-55.5 5.5q-50 0 -98 -17.5
t-85.5 -55.5t-60.5 -98t-23 -145zM450 696q78 0 146.5 -22.5t119.5 -67t80.5 -109.5t29.5 -149q0 -78 -27 -145.5t-77 -117t-121.5 -77.5t-160.5 -28q-82 0 -151 24.5t-119 70.5t-78 112t-28 149q0 80 26 146t75.5 113.5t121 74t163.5 26.5z" />
    <glyph glyph-name="atilde" unicode="&#xe3;" 
d="M87 574q4 23 14 41t24 31t31 19.5t35 6.5q8 0 14 -1t14.5 -4t21 -8.5l33.5 -15.5q23 -11 32 -14t22 -3q24 0 36.5 16.5t19.5 33.5h29q-3 -12 -10 -29.5t-19.5 -33.5t-31.5 -27.5t-44 -11.5q-13 0 -26.5 3t-30.5 11l-35 17q-14 7 -24.5 11t-22.5 4q-3 0 -10.5 -1t-16 -5.5
t-16.5 -14t-12 -25.5h-27zM327 245q-65 -10 -102.5 -22.5t-57.5 -27.5t-25.5 -33t-5.5 -38q0 -24 8.5 -40.5t21 -26t27.5 -13.5t28 -4q19 0 38 7t34 20t24.5 30t9.5 38v110zM76 361l4 65l27 20t35 20t44.5 15t55.5 6q29 0 66.5 -8.5t67.5 -36.5q17 -17 29 -41.5t12 -70.5
q0 -11 -0.5 -37t-1.5 -54.5t-1.5 -53.5t-0.5 -35q0 -33 0.5 -55.5t4 -36t11 -19.5t21.5 -6q9 0 15 1.5t10 3.5l1 -28q-17 -8 -34 -15t-38 -7q-25 0 -46.5 15.5t-29.5 49.5q-12 -12 -26 -24.5t-32 -22.5t-41 -16.5t-52 -6.5q-39 0 -65 13t-42.5 33t-23.5 43t-7 44
q0 40 14.5 64.5t38 40t53.5 23.5t60 15l87 19q21 5 29 16t8 32q0 51 -31.5 80t-80.5 29q-31 0 -51.5 -8.5t-33.5 -20.5t-19.5 -24.5t-9.5 -20.5h-27z" />
    <glyph glyph-name="Udieresis" unicode="&#xdc;" horiz-adv-x="778" 
d="M264 793q0 19 13.5 32.5t32.5 13.5q20 0 33.5 -13.5t13.5 -32.5q0 -20 -13.5 -33.5t-33.5 -13.5q-19 0 -32.5 13.5t-13.5 33.5zM460 793q0 19 13.5 32.5t32.5 13.5q20 0 33.5 -13.5t13.5 -32.5q0 -20 -13.5 -33.5t-33.5 -13.5q-19 0 -32.5 13.5t-13.5 33.5zM98 273v115.5
t-0.5 84t-0.5 61.5t-1 49.5t-2.5 48l-3.5 55.5q16 -2 30.5 -4t28.5 -2q17 0 31 2l27 4q-3 -49 -5 -105.5t-3 -106.5t-1 -86v-44q0 -47 1 -84.5t5.5 -67t13.5 -52.5t24 -41q24 -30 68 -47.5t92 -17.5q10 0 37.5 3t59 17.5t60 43.5t40.5 82q6 25 9.5 57t5 62t2 54t0.5 33
q0 14 -1 53.5t-2.5 86t-4 91.5t-6.5 69l20 -4t27 -2t26 2l18 4q-10 -69 -13.5 -155t-3.5 -198q0 -36 -2 -74t-9 -73.5t-21.5 -68t-39.5 -58.5q-32 -33 -83 -56t-137 -23q-29 0 -62 4t-65.5 15.5t-63 31t-53.5 50.5q-14 19 -22 39t-12.5 43t-6 50t-1.5 59z" />
    <glyph glyph-name="ecircumflex" unicode="&#xea;" horiz-adv-x="556" 
d="M260 716h56l122 -167h-33l-117 105l-117 -105h-34zM408 280q0 12 -2 39.5t-13 55.5t-35.5 49.5t-69.5 21.5q-66 0 -98.5 -45.5t-39.5 -120.5h258zM149 238q0 -11 0.5 -26t3 -32.5t8 -36.5t15.5 -36q17 -28 37 -44t39.5 -23.5t36 -9t27.5 -1.5q37 0 64 9.5t46.5 23t31 27
t17.5 21.5l12 -3q-5 -21 -5.5 -34.5t-1.5 -25.5q-33 -32 -79 -48.5t-107 -16.5q-57 0 -102.5 17.5t-77 50t-48.5 78.5t-17 104q0 52 14.5 98t44 80.5t74.5 55t107 20.5q56 0 94 -14.5t62.5 -37.5t37 -51.5t18.5 -56t6.5 -51.5t0.5 -37h-359z" />
    <glyph glyph-name="numbersign" unicode="#" 
d="M170 245h128l26 140h-128zM55 0l34 184h-105v61h117l24 140h-104v61h117l39 213h70l-39 -213h127l40 213h70l-40 -213h105v-61h-116l-26 -140h105v-61h-116l-34 -184h-70l34 184h-128l-34 -184h-70z" />
    <glyph glyph-name="exclam" unicode="!" horiz-adv-x="444" 
d="M219 115q26 0 44.5 -18.5t18.5 -44.5t-18.5 -45t-44.5 -19q-27 0 -45.5 18.5t-18.5 44.5t18.5 45t45.5 19zM165 578q-2 14 -2.5 21.5t-0.5 15.5q0 5 1 17t6 24.5t16.5 22t32.5 9.5q20 0 31 -8.5t16.5 -20.5t7 -24t1.5 -19q0 -9 -0.5 -17.5t-2.5 -21.5l-40 -404
q-9 2 -15 1.5t-12 -1.5z" />
    <glyph glyph-name="quotedbl" unicode="&#x22;" 
d="M314 409l-26 286h84l-26 -286h-32zM154 409l-26 286h84l-26 -286h-32z" />
    <glyph glyph-name="Lslash" unicode="&#x141;" 
d="M211 52q36 -2 55 -2h38t43.5 1t49 2.5t48 3.5t40.5 5q-2 -7 -3 -14.5t-1 -18.5q0 -12 1 -20t3 -14q-24 1 -45.5 2t-46 2t-54 1.5t-70.5 0.5q-33 0 -55.5 -0.5t-40.5 -1.5l-34.5 -2t-36.5 -2q2 37 4 78.5t3.5 80.5t2 73.5t0.5 57.5l-21.5 -9t-20 -9l-24 -12l-34.5 -18
q-8 14 -13 21.5t-19 19.5l31 12.5l27 11.5t31 14.5l43 20.5q0 24 -1 70t-2 97.5t-3 101t-3 81.5l23.5 -4t30.5 -2q20 0 34.5 2l28.5 4q-4 -106 -6 -182.5t-2 -119.5q47 21 86.5 40.5t81.5 43.5q5 -16 9.5 -24t16.5 -23l-45 -21l-51.5 -24l-52 -23.5t-45.5 -21.5
q0 -38 -0.5 -65t-0.5 -56.5v-66v-92.5z" />
    <glyph glyph-name="lslash" unicode="&#x142;" horiz-adv-x="278" 
d="M93 391q0 104 -1.5 193t-5.5 149l24.5 -4t26.5 -2t27 2l27 4q-3 -75 -5 -149.5t-2 -149.5q16 6 28 11.5l22.5 10.5t21 11l24.5 14q6 -12 10.5 -18.5t13.5 -17.5l-67 -27.5t-53 -24.5v-70q0 -48 0.5 -90.5t1.5 -82t2.5 -77.5t3.5 -78q-13 3 -24 4.5t-31 1.5
q-19 0 -29 -1.5t-21 -4.5q2 40 3.5 79.5t2 82.5t0.5 91v104l-44 -21l-39 -19q-6 12 -10 17.5t-14 15.5l54 21.5t53 24.5z" />
    <glyph glyph-name="onesuperior" unicode="&#xb9;" horiz-adv-x="325" 
d="M230 678q-2 -10 -2 -15.5t-1 -15.5q-1 -16 -2 -42.5t-1.5 -57l-1 -63.5t-0.5 -62.5v-53v-36.5v-41.5t1 -24.5q-12 2 -20 2.5t-17 0.5t-17.5 -0.5t-22.5 -2.5l4.5 38t2.5 57q0 4 0.5 29.5t0.5 62t0.5 80t0.5 82.5q-5 -2 -18.5 -9.5l-30.5 -16.5t-34 -19t-27 -17
q-5 8 -11 15t-19 14v7q15 5 41.5 15t55.5 23l57.5 27t47.5 28z" />
    <glyph glyph-name="minus" unicode="&#x2212;" horiz-adv-x="593" 
d="M45 275h502v-60h-502v60z" />
    <glyph glyph-name="onequarter" unicode="&#xbc;" horiz-adv-x="817" 
d="M230 678q-2 -10 -2 -15.5t-1 -15.5q-1 -16 -2 -42.5t-1.5 -57l-1 -63.5t-0.5 -62.5v-53v-36.5v-41.5t1 -24.5q-12 2 -20 2.5t-17 0.5t-17.5 -0.5t-22.5 -2.5l4.5 38t2.5 57q0 4 0.5 29.5t0.5 62.5t0.5 80t0.5 83q-5 -2 -18.5 -9l-30.5 -16t-34 -19t-28 -18
q-5 8 -10.5 14.5t-18.5 13.5v6q15 5 41.5 15t56 23t57.5 27.5t48 28.5zM216 -17q-6 2 -11.5 2.5t-14.5 0.5q-11 0 -16.5 -0.5t-12.5 -2.5l438 690q6 -2 12 -2.5t17 -0.5t16.5 0.5t11.5 2.5zM682 330l-18.5 -24l-25 -33l-27.5 -36t-24 -32l-21.5 -30.5t-15.5 -23.5h132v179z
M577 107q-12 0 -39 -0.5t-50 -1.5q1 5 1 8.5t-1 11.5q6 7 23 29.5l39.5 52.5l47 63.5l45.5 62l35 48t16 21.5q6 -2 12.5 -2.5t17.5 -0.5q8 0 13.5 0.5t13.5 2.5q-2 -32 -2.5 -54t-1 -47t-1 -59.5t-0.5 -90.5q11 0 18 0.5t13 0.5t11.5 0.5t14.5 0.5q-3 -14 -3 -25
q0 -8 0.5 -13t2.5 -11q-11 2 -23.5 2.5t-33.5 0.5v-15.5t0.5 -24t0.5 -24v-15.5q1 -14 1 -19v-11q-10 2 -17.5 3t-18.5 1q-8 0 -15.5 -1t-19.5 -3q1 17 3 45.5t2 63.5h-105z" />
    <glyph glyph-name="onehalf" unicode="&#xbd;" horiz-adv-x="817" 
d="M230 678q-2 -10 -2 -15.5t-1 -15.5q-1 -16 -2 -42.5t-1.5 -57l-1 -63.5t-0.5 -62.5v-53v-36.5v-41.5t1 -24.5q-12 2 -20 2.5t-17 0.5t-17.5 -0.5t-22.5 -2.5l4.5 38t2.5 57q0 4 0.5 29.5t0.5 62t0.5 80t0.5 82.5q-5 -2 -18.5 -9.5l-30.5 -16.5t-34 -19t-27 -17
q-5 8 -11 15t-19 14v7q15 5 41.5 15t55.5 23l57.5 27t47.5 28zM505 17l69.5 63t66.5 66l21 23.5t22 30.5t17 37.5t7 44.5q0 10 -2 26t-10 31t-23 25.5t-40 10.5q-12 0 -25.5 -4t-25 -13.5t-19 -25.5t-6.5 -39l-12 -2q-5 14 -14 24.5l-16 18.5q3 6 11.5 18t24 24.5t39.5 21.5
t59 9q63 0 97.5 -31t34.5 -76q0 -42 -22 -76.5t-48 -59.5l-119 -113h117q23 0 46 1t43 3q-3 -12 -3 -28q0 -9 0.5 -15.5t2.5 -14.5q-14 1 -36.5 2t-45.5 1q-48 0 -105 -1t-106 -2v20zM216 -17q-6 2 -11.5 2.5t-14.5 0.5q-11 0 -16.5 -0.5t-12.5 -2.5l438 690q6 -2 12 -2.5
t17 -0.5t16.5 0.5t11.5 2.5z" />
    <glyph glyph-name="brokenbar" unicode="&#xa6;" horiz-adv-x="222" 
d="M79 675h65v-350h-65v350zM79 175h65v-350h-65v350z" />
    <glyph glyph-name="thorn" unicode="&#xfe;" horiz-adv-x="611" 
d="M461 232q0 57 -12.5 96t-32 63.5t-44 35.5t-48.5 11q-41 0 -68 -15t-44 -37q-8 -9 -15 -21.5t-13 -31t-9.5 -44.5t-3.5 -63q0 -33 3.5 -56.5t9 -40t13 -28.5t15.5 -21q20 -23 45.5 -36t60.5 -13q36 0 60.5 12.5t40.5 32.5t24.5 43.5t12.5 46t4.5 40.5t0.5 26zM564 237
q0 -59 -17 -106.5t-47.5 -81t-72.5 -51.5t-91 -18q-35 0 -63 9t-48 22.5t-33 30t-19 31.5v-106.5t0.5 -88t1.5 -76t3 -69.5q-11 3 -22.5 4.5t-29.5 1.5q-19 0 -30.5 -1.5t-23.5 -4.5l4 79.5t3.5 90t2.5 119t1 167.5q0 272 -6 544q11 -2 23.5 -4t26.5 -2q15 0 27 2l23 4
q-3 -28 -4 -60.5t-1.5 -73t0 -91.5t0.5 -116q6 10 17.5 26t31.5 31.5t49.5 27t71.5 11.5q37 0 76.5 -14t72 -44.5t53 -78t20.5 -114.5z" />
    <glyph glyph-name="yacute" unicode="&#xfd;" 
d="M197 549l134 133l19.5 19t12.5 11t9.5 5t10.5 1q14 0 24 -10.5t10 -24.5q0 -18 -19 -30l-166 -104h-35zM178 81l-25 60l-28.5 67.5l-28.5 67.5l-25 60l-18 44.5t-14 32.5l-14.5 31l-18.5 39q13 -3 26.5 -4.5t36.5 -1.5q17 0 28 0.5t26 5.5q3 -10 16 -46l31 -84l38.5 -102
l39.5 -100q5 -13 10.5 -23.5t10.5 -10.5q4 0 20 34.5t37 87.5t44 118t41 126q8 -2 19 -4t25 -2t24 2t16 4q-7 -11 -13 -22t-17 -33.5l-28.5 -61l-47.5 -103.5l-16.5 -36l-17.5 -36l-101 -226.5t-83 -226.5q-5 2 -14.5 4t-20.5 2q-18 0 -45 -6l65 122t62 122z" />
    <glyph glyph-name="Scaron" unicode="&#x160;" horiz-adv-x="556" 
d="M306 727h-56l-123 167h34l117 -105l117 105h33zM424 560q-5 14 -14.5 30.5t-25.5 30.5t-40.5 23t-58.5 9q-41 0 -66 -13t-39 -31.5t-18.5 -38t-4.5 -32.5q0 -30 11 -50.5t28.5 -34.5t38 -24t39.5 -17l66.5 -26t42.5 -18t29 -15.5t25 -18.5q17 -14 28 -30.5t17 -33.5
t8.5 -33.5t2.5 -30.5q0 -39 -14 -78.5t-44.5 -72t-78 -52.5t-114.5 -20q-50 0 -96.5 13t-85.5 42q11 38 14 61t4 33h13q22 -45 64.5 -74.5t102.5 -29.5q39 0 67 12t46 30.5t26.5 42.5t8.5 48q0 30 -10 51.5t-27 37.5t-39.5 27.5t-47.5 21.5l-70 29.5l-42 19t-25.5 14
t-19.5 15.5q-26 21 -38 55t-12 69q0 48 18 84.5t48.5 61t71 36.5t84.5 12q29 0 56 -5t49.5 -12t39 -15t25.5 -14l-7.5 -15.5t-9 -21.5t-8 -25.5t-4.5 -26.5h-14z" />
    <glyph glyph-name="eth" unicode="&#xf0;" horiz-adv-x="611" 
d="M308 447q-40 0 -67 -13.5t-44.5 -34.5t-27 -46t-14 -48.5t-5 -42t-0.5 -25.5q0 -105 42 -160.5t111 -55.5q36 0 65.5 15t50 43t32 67.5t11.5 89.5q0 29 -6 65.5t-22.5 69t-46.5 54.5t-79 22zM48 229q0 57 16.5 104t48.5 80.5t78.5 52.5t105.5 19q26 0 42 -3t35 -8
q-29 38 -61 68l-65 59l-51.5 -16.5t-36.5 -12.5l-29.5 -11.5t-30.5 -13.5q-8 17 -24 38l37.5 10.5t31.5 9.5l31.5 10.5l38.5 13.5q-35 29 -66.5 51.5l-67.5 46.5q14 3 24 6l18 5.5t15.5 5.5t17.5 8l73.5 -44.5t70.5 -47.5l70.5 25t73.5 30q5 -11 10.5 -20.5t12.5 -19.5
l-66 -19.5t-68 -23.5q48 -36 90 -76t73.5 -87t49.5 -101t18 -117q0 -79 -25 -131t-64 -83t-85 -43.5t-88 -12.5q-40 0 -85 11.5t-82.5 39.5t-62 76t-24.5 121z" />
    <glyph glyph-name="multiply" unicode="&#xd7;" horiz-adv-x="593" 
d="M252 245l-193 193l45 45l193 -193l192 192l45 -45l-192 -191l192 -193l-45 -45l-192 193l-192 -193l-46 45z" />
    <glyph glyph-name="twosuperior" unicode="&#xb2;" horiz-adv-x="325" 
d="M13 288l69.5 63t66.5 66l21 23.5t22 30.5t17 37.5t7 44.5q0 10 -2 26t-10 31t-23 25.5t-40 10.5q-12 0 -25.5 -4t-25 -13.5t-19 -25.5t-6.5 -39l-12 -2q-5 14 -14 24.5l-16 18.5q3 6 11.5 18t24 24.5t39.5 21.5t59 9q63 0 97.5 -31t34.5 -76q0 -42 -22 -76.5t-48 -59.5
l-119 -113h117q23 0 46 1t43 3q-3 -12 -3 -28q0 -9 0.5 -15.5t2.5 -14.5q-14 1 -36.5 2t-45.5 1q-48 0 -105 -1t-106 -2v20z" />
    <glyph glyph-name="zcaron" unicode="&#x17e;" 
d="M278 549h-56l-123 167h34l117 -105l117 105h33zM20 21l85 105.5l84 106.5q9 11 29 38.5l42.5 58l42 57.5t27.5 37q-18 2 -32.5 2.5t-36.5 0.5q-5 0 -29 -0.5t-55.5 -2t-64.5 -4.5t-57 -8q2 9 3 16.5t1 17.5q0 11 -1 19t-3 16q16 -2 30 -3.5t28 -3.5q32 -4 61 -5t65 -1
q59 0 117.5 1t117.5 5v-18q-11 -11 -19 -20l-19 -21.5l-26 -31l-38.5 -49l-58 -74.5l-83.5 -108l-13 -16.5t-19.5 -26.5l-21 -31.5t-17.5 -31.5h59t74.5 1t85 4t90.5 8q-2 -7 -3 -13t-1 -14t1 -17.5t3 -19.5q-9 1 -31 2t-53 2t-68.5 1.5t-76.5 0.5q-75 0 -131 -1.5t-88 -4.5
v26z" />
    <glyph glyph-name="Yacute" unicode="&#xdd;" horiz-adv-x="611" 
d="M258 727l134 133l19.5 19t12.5 11t9.5 5t10.5 1q14 0 24 -10.5t10 -24.5q0 -18 -19 -30l-166 -104h-35zM363 227q0 -14 0.5 -41t1 -59.5t2 -67t3.5 -64.5q-15 5 -27.5 5.5t-22.5 0.5q-23 0 -36 -1t-24 -5q3 31 4.5 57t2 56t0 69.5t-0.5 96.5l-72 121l-52.5 88.5l-39 64.5
l-30 49.5l-26 43.5l-28.5 46q20 -5 38 -5.5t26 -0.5q26 0 44 2t26 4q31 -78 66.5 -143.5l67.5 -121.5l16 -27.5l15 -24.5t12 -17.5t8 -6.5q2 0 7.5 8l12 18t12 20t8.5 15q39 68 74 137.5t65 142.5q11 -4 23 -5t24 -1q14 0 23.5 1.5t21.5 4.5l-27.5 -40.5l-39 -60.5
l-44.5 -71.5l-45 -73.5l-40 -67l-29 -51q-7 -12 -11 -22t-8 -19q-1 -11 -1 -25v-30z" />
    <glyph glyph-name="Zcaron" unicode="&#x17d;" horiz-adv-x="611" 
d="M334 727h-56l-123 167h34l117 -105l117 105h33zM5 12q3 3 11.5 14l18 23l18 23.5t11.5 16.5l79.5 111l97.5 140.5l102.5 150l94.5 140.5q-56 0 -111.5 -0.5t-107 -2t-96.5 -4.5t-79 -9q2 8 3 17.5t1 20.5q0 13 -1 20t-3 14q33 -2 62 -3.5t61 -2t71 -0.5h91
q100 0 166.5 1.5t94.5 4.5v-15l-177.5 -246.5l-136 -194.5l-87 -128.5t-30.5 -48.5t2.5 -2.5t3.5 -0.5q83 0 189 2t234 13q-2 -5 -3 -12.5t-1 -20.5q0 -8 0.5 -17.5t3.5 -20.5q-6 1 -30.5 1.5t-59 1.5t-75 1.5l-77.5 1t-67 0.5h-44q-58 0 -115.5 -1t-114.5 -5v17z" />
    <glyph glyph-name="threesuperior" unicode="&#xb3;" horiz-adv-x="325" 
d="M37 337q19 -29 44 -37t42 -8q28 0 47 9.5t29.5 23t15 29.5t4.5 28q0 22 -8 38t-21 26.5t-30 15t-36 4.5q-11 0 -17 -1t-14 -3q1 3 1.5 7t0.5 11q0 6 -0.5 10.5t-1.5 10.5q8 -2 16 -3t16 -1q21 0 36 7.5t24 19.5t13 26t4 27q0 31 -20 50.5t-51 19.5q-26 0 -47 -15.5
t-24 -41.5l-12 1q-3 15 -7 23t-12 22q13 11 39.5 25.5t74.5 15.5q19 0 41.5 -4.5t41.5 -15t32 -28t13 -44.5q0 -35 -23.5 -60.5t-60.5 -35.5q-8 -2 -9.5 -2.5t-1.5 -2.5t3 -2q13 0 32 -3.5t37 -14t31 -29t13 -48.5q0 -54 -46 -89.5t-126 -35.5q-41 0 -65 8.5t-38 15.5
q5 11 6.5 20.5t1.5 29.5z" />
    <glyph glyph-name="threequarters" unicode="&#xbe;" horiz-adv-x="817" 
d="M37 337q19 -29 44 -37t42 -8q28 0 47 9.5t29.5 23t15 29.5t4.5 28q0 22 -8 38t-21 26.5t-30 15t-36 4.5q-11 0 -17 -1t-14 -3q1 3 1.5 7t0.5 11q0 6 -0.5 10.5t-1.5 10.5q8 -2 16 -3t16 -1q21 0 36 7.5t24 19.5t13 26t4 27q0 31 -20 50.5t-51 19.5q-26 0 -47 -15.5
t-24 -41.5l-12 1q-3 15 -7 23t-12 22q13 11 39.5 25.5t74.5 15.5q19 0 41.5 -4.5t41.5 -15t32 -28t13 -44.5q0 -35 -23.5 -60.5t-60.5 -35.5q-8 -2 -9.5 -2.5t-1.5 -2.5t3 -2q13 0 32 -3.5t37 -14t31 -29t13 -48.5q0 -54 -46 -89.5t-126 -35.5q-41 0 -65 8.5t-38 15.5
q5 11 6.5 20.5t1.5 29.5zM221 -17q-6 2 -11.5 2.5t-14.5 0.5q-11 0 -16.5 -0.5t-12.5 -2.5l438 690q6 -2 12 -2.5t17 -0.5t16.5 0.5t11.5 2.5zM682 330l-18.5 -24l-25 -33l-27.5 -36t-24 -32l-21.5 -30.5t-15.5 -23.5h132v179zM577 107q-12 0 -39 -0.5t-50 -1.5q1 5 1 8.5
t-1 11.5q6 7 23 29.5l39.5 52.5l47 63.5l45.5 62l35 48t16 21.5q6 -2 12.5 -2.5t17.5 -0.5q8 0 13.5 0.5t13.5 2.5q-2 -32 -2.5 -54t-1 -47t-1 -59.5t-0.5 -90.5q11 0 18 0.5t13 0.5t11.5 0.5t14.5 0.5q-3 -14 -3 -25q0 -8 0.5 -13t2.5 -11q-11 2 -23.5 2.5t-33.5 0.5v-15.5
t0.5 -24t0.5 -24v-15.5q1 -14 1 -19v-11q-10 2 -17.5 3t-18.5 1q-8 0 -15.5 -1t-19.5 -3q1 17 3 45.5t2 63.5h-105z" />
    <glyph glyph-name="Eth" unicode="&#xd0;" horiz-adv-x="778" 
d="M614 348q0 28 -4 60t-15 64t-31 61.5t-51 53.5q-27 20 -55.5 30.5t-58.5 15.5t-60.5 6t-60.5 1h-29.5t-20.5 -0.5t-17.5 -1.5t-20.5 -2q-3 -60 -4 -118.5t-1 -118.5q56 0 100.5 0.5t76.5 2.5q-1 -6 -1.5 -12t-0.5 -16q0 -7 0.5 -12t1.5 -10q-48 2 -91.5 2.5t-85.5 0.5
v-208q0 -7 0.5 -20.5l1 -28l1 -28.5t0.5 -23q26 -3 48.5 -4.5t57.5 -1.5q16 0 41 0.5t53.5 5t58 14.5t55.5 28q35 25 57 57t34 67t16.5 70t4.5 65zM725 360q0 -95 -31.5 -164t-84 -113.5t-121 -66t-143.5 -21.5q-4 0 -25.5 0.5t-48 1.5t-51.5 1.5t-34 0.5h-20t-22 -0.5
t-28 -1.5t-37 -2q4 53 6 91t3 75.5t1.5 82t0.5 111.5q-23 0 -46 -1l-46 -2q3 18 2 26v11.5t-2 12.5q46 -3 92 -3q0 74 -1 146t-6 144q82 -3 164 -3q67 0 119.5 -1t96 -8t80.5 -22t72 -43q33 -26 54 -56.5t33.5 -63t17.5 -66t5 -66.5z" />
    <glyph glyph-name="scaron" unicode="&#x161;" horiz-adv-x="444" 
d="M250 549h-56l-123 167h34l117 -105l117 105h33zM333 370q-3 11 -10 28t-29 32q-16 11 -34.5 14t-30.5 3q-46 0 -69.5 -21.5t-23.5 -53.5q0 -22 10 -37t24 -25.5t30.5 -16.5t29.5 -9q33 -9 62.5 -18t51.5 -24t34.5 -39t12.5 -61q0 -29 -10.5 -57.5t-33.5 -51.5
t-59.5 -37.5t-88.5 -14.5q-30 0 -55.5 5.5t-44.5 12.5t-31.5 14t-16.5 10q5 9 9 21t7 23.5t4.5 21t2.5 14.5l12 3q5 -13 15.5 -31t38.5 -35q19 -11 37.5 -15t35.5 -4q19 0 37.5 5t32.5 15t22.5 25.5t8.5 36.5t-7 35t-23 24.5t-43 20l-66 22.5q-16 5 -36 14t-37 24.5
t-29 38.5t-12 56q0 21 7.5 47t27 48.5t53 38t85.5 15.5t83.5 -12t48.5 -21q-8 -20 -13 -39t-7 -45h-13z" />
    <glyph glyph-name="Thorn" unicode="&#xde;" horiz-adv-x="556" 
d="M424 382q0 75 -46 108.5t-132 33.5q-18 0 -30 -1t-26 -3q-2 -146 0 -293q38 -2 79.5 0.5t76 17.5t56.5 47t22 90zM289 566q39 0 78 -3t74 -20q45 -22 68.5 -62t23.5 -90q0 -26 -8 -56.5t-29 -58t-56.5 -50t-90.5 -33.5q-23 -5 -52 -7.5t-60 -2.5q-11 0 -22.5 0.5
t-24.5 1.5q1 -29 1.5 -48l1 -37.5t1.5 -42t3 -62.5q-13 2 -24.5 4t-33.5 2q-20 0 -31 -2l-22 -4q5 106 6.5 211t1.5 211q0 56 -0.5 95t-1.5 69t-2.5 54.5t-3.5 51.5q16 -2 26.5 -4t25.5 -2q16 0 30.5 2t26.5 4q0 -8 -1 -25t-1.5 -36.5t-1.5 -36.5t-1 -23h99z" />
  </font>
</defs>
</svg>
